<?xml version="1.0" standalone="no"?>
<!DOCTYPE svg PUBLIC "-//W3C//DTD SVG 1.1//EN" "http://www.w3.org/Graphics/SVG/1.1/DTD/svg11.dtd" >
<svg xmlns="http://www.w3.org/2000/svg">
<metadata></metadata>
<defs>
<font id="accanthis_adf_std_no2regular" horiz-adv-x="231" >
<font-face units-per-em="1000" ascent="750" descent="-250" />
<missing-glyph horiz-adv-x="350" />
<glyph unicode="AE" horiz-adv-x="854" d="M351 671l-98 -301h156v280q0 9 -1.5 14t-8 7.5t-12.5 3t-22 0.5h-4q-8 0 -10 -4zM527 25q77 0 130.5 11t77.5 26.5t38 31.5t23 27t20 11q16 0 25 -18l-56 -114h-426q-6 6 -6 12t6 13h34q16 3 16 25v281h-168l-95 -281q-3 -6 -3 -11q0 -14 23 -14h25q5 -5 5 -13 q0 -7 -5 -12h-175q-6 8 -6 12q0 6 6 13h9q17 0 26.5 4.5t14.5 20.5l224 650h475l56 -114q-9 -18 -25 -18q-12 0 -20.5 11t-21 27t-34.5 31.5t-71.5 26.5t-121.5 11h-16q-14 0 -20.5 -5t-6.5 -20v-280h147q25 0 25 31v37q5 5 13 5q7 0 12 -5v-175l-12 -5q-6 2 -13 5v38 q-2 30 -25 30h-147v-281q0 -15 6.5 -20t20.5 -5h16z" />
<glyph unicode="ae" horiz-adv-x="706" d="M301 85v150l-151 -57q-35 -14 -35 -77q0 -39 24 -62.5t62 -23.5q28 0 64 22t36 48zM384 237l210 107q-6 28 -39 54t-62 26q-54 0 -81.5 -55.5t-27.5 -116.5v-15zM528 15q33 0 62.5 16.5t46 32.5t18.5 16q6 0 11 -4.5t5 -11.5q0 -10 -20 -27t-59.5 -32t-82.5 -15 q-48 0 -86 14t-64 32.5t-30 19.5l-9 -10q-18 -26 -58 -41t-77 -15q-61 0 -105.5 24t-44.5 79q0 65 67 91l199 76v40q0 52 -20.5 88t-67.5 36q-26 0 -46.5 -14t-30.5 -30t-22 -30t-23 -14q-12 0 -20.5 9t-8.5 20q0 35 48.5 60t86.5 25q130 0 166 -68q57 68 146 68 q112 0 180 -92l-301 -152q1 -48 14 -89t45.5 -71.5t80.5 -30.5z" />
<glyph unicode="OE" horiz-adv-x="937" d="M492 626q-64 58 -158 58q-47 0 -87 -30t-64.5 -76t-38 -95.5t-13.5 -92.5q0 -64 14 -126.5t42.5 -120t81 -93t120.5 -35.5q55 0 103 41v570zM610 25q76 0 130 11t78 26.5t38 31.5t23 27t20 11q16 0 25 -18l-56 -114h-426v1q-41 -11 -83 -11q-142 0 -232 108.5t-90 253.5 t89.5 251.5t232.5 106.5q47 0 84 -10h405l56 -114q-9 -18 -25 -18q-12 0 -20.5 11t-21 27t-34.5 31.5t-71.5 26.5t-121.5 11h-16q-14 0 -20.5 -5t-6.5 -20v-280h147q25 1 25 30v38q5 5 13 5q7 0 12 -5v-175q-4 -7 -12 -6q-7 0 -13 6v39q-2 29 -25 29h-147v-281 q0 -15 6.5 -20t20.5 -5h16z" />
<glyph unicode="oe" horiz-adv-x="800" d="M575 424q-39 0 -65.5 -34t-35.5 -73.5t-9 -78.5l211 106q-7 29 -40 54.5t-61 25.5zM238 424q-37 0 -62.5 -32.5t-35.5 -71.5t-10 -76q0 -42 6 -78t20.5 -72t44 -57t72.5 -21q38 0 63.5 31.5t35 69.5t9.5 76q0 46 -5 81t-18.5 72t-44 57.5t-75.5 20.5zM610 15q26 0 50 11 t37.5 23.5t25 23.5t15.5 11q8 0 14 -5.5t6 -13.5q0 -10 -20 -27t-60.5 -32.5t-86.5 -15.5q-108 0 -167 93q-61 -93 -170 -93q-93 0 -151.5 68.5t-58.5 161.5t58.5 161.5t151.5 68.5q109 0 170 -93q59 93 167 93q116 0 185 -92l-311 -152q2 -75 39 -133t106 -58z" />
<glyph unicode="ffj" horiz-adv-x="742" d="M615 671q-17 0 -30.5 14.5t-37.5 14.5q-62 0 -99 -43t-37 -107v-110h274q-10 -27 -10 -50v-440q0 -36 -6 -68t-19.5 -63.5t-41 -50t-65.5 -18.5q57 26 57 200v415q-19 31 -40.5 40.5t-62.5 9.5h-86v-365q0 -25 20 -25h30q5 -5 5 -13q0 -7 -5 -12h-175l-5 12l5 13h28 q22 2 22 25v365h-186v-365q0 -25 20 -25h30q5 -5 5 -13q0 -7 -5 -12h-175q-4 8 -4 11q0 9 4 14h29q21 2 21 25v365h-54l18 25h36v20q0 49 34.5 107.5t89 100.5t105.5 42q85 0 85 -54q0 -10 -12 -17.5t-23 -7.5q-17 0 -30.5 14.5t-37.5 14.5h-5q-57 0 -94 -34.5t-37 -93.5 v-92h186v20q0 54 31.5 121.5t86.5 118t111 50.5q85 0 85 -54q0 -10 -12 -17.5t-23 -7.5z" />
<glyph unicode="fj" horiz-adv-x="510" d="M365 671q-17 0 -30.5 14.5t-37.5 14.5q-62 0 -99 -43t-37 -107v-110h274q-10 -27 -10 -50v-440q0 -36 -6 -68t-19.5 -63.5t-41 -50t-65.5 -18.5q57 26 57 200v415q-19 31 -40.5 40.5t-62.5 9.5h-86v-365q0 -25 20 -25h30q5 -5 5 -13q0 -7 -5 -12h-175l-5 12l5 13h28 q22 2 22 25v365h-54l18 25h36v20q0 54 31.5 121.5t86.5 118t111 50.5q85 0 85 -54q0 -10 -12 -17.5t-23 -7.5z" />
<glyph unicode="ft" horiz-adv-x="601" d="M161 415v-365q0 -25 20 -25h30q5 -5 5 -13q0 -7 -5 -12h-175q-4 8 -4 11q0 9 4 14h29q21 2 21 25v365h-54l18 25h36v20q0 54 31.5 121.5t86.5 118t111 50.5q85 0 85 -54q0 -10 -12 -17.5t-23 -7.5q-17 0 -30.5 14.5t-37.5 14.5q-62 0 -99 -43t-37 -107v-110h135 q21 0 39 24t28.5 53t24.5 55t29 28q-10 -16 -10 -50v-110h82l-18 -25h-64v-259q0 -29 1.5 -47t8 -43t22.5 -38t42 -13q24 0 41.5 16t28 32t18.5 16q12 0 12 -12q-1 -3 -3 -8.5t-11 -18.5t-21 -23t-34.5 -18.5t-49.5 -8.5q-65 0 -97.5 41t-32.5 108v276h-171z" />
<glyph unicode="ff" horiz-adv-x="510" d="M615 671q-17 0 -30.5 14.5t-37.5 14.5q-62 0 -99 -43t-37 -107v-110h82l-18 -25h-64v-365q0 -25 20 -25h30q5 -5 5 -13q0 -7 -5 -12h-175q-5 9 -4 13q0 7 4 12h29q21 2 21 25v365h-186v-365q0 -25 20 -25h30q5 -5 5 -13q0 -7 -5 -12h-175q-4 8 -4 11q0 9 4 14h29 q21 2 21 25v365h-54l18 25h36v20q0 49 34.5 107.5t89 100.5t105.5 42q85 0 85 -54q0 -10 -12 -17.5t-23 -7.5q-17 0 -30.5 14.5t-37.5 14.5h-5q-57 0 -94 -34.5t-37 -93.5v-92h186v20q0 54 31.5 121.5t86.5 118t111 50.5q85 0 85 -54q0 -10 -12 -17.5t-23 -7.5z" />
<glyph unicode="fi" horiz-adv-x="510" d="M365 671q-17 0 -30.5 14.5t-37.5 14.5q-62 0 -99 -43t-37 -107v-110h274q-10 -27 -10 -50v-340q0 -25 22 -25h28q5 -5 5 -13q0 -7 -5 -12h-175l-5 12l5 13h29q21 2 21 25v315q-19 31 -40.5 40.5t-62.5 9.5h-86v-365q0 -25 20 -25h30q5 -5 5 -13q0 -7 -5 -12h-175l-5 12 l5 13h28q22 2 22 25v365h-54l18 25h36v20q0 54 31.5 121.5t86.5 118t111 50.5q85 0 85 -54q0 -10 -12 -17.5t-23 -7.5z" />
<glyph unicode="fl" horiz-adv-x="510" d="M315 750q37 0 59 -17q29 17 61 17q-10 -27 -10 -50v-650q0 -25 20 -25h30q5 -5 5 -13q0 -7 -5 -12h-175q-6 6 -6 13t6 12h29q21 2 21 25v600q0 20 -18 35t-38 15q-61 0 -97 -43.5t-36 -106.5v-110h82l-18 -25h-64v-365q0 -25 20 -25h30q5 -5 5 -13q0 -7 -5 -12h-175 q-4 8 -4 11q0 9 4 14h29q21 2 21 25v365h-54l18 25h36v20q0 54 31.5 121.5t86.5 118t111 50.5z" />
<glyph unicode="ffi" horiz-adv-x="742" d="M615 671q-17 0 -30.5 14.5t-37.5 14.5q-62 0 -99 -43t-37 -107v-110h274q-10 -27 -10 -50v-340q0 -25 22 -25h28q5 -5 5 -13q0 -7 -5 -12h-175l-5 12l5 13h29q21 2 21 25v315q-19 31 -40.5 40.5t-62.5 9.5h-86v-365q0 -25 20 -25h30q5 -5 5 -13q0 -7 -5 -12h-175l-5 12 l5 13h28q22 2 22 25v365h-186v-365q0 -25 20 -25h30q5 -5 5 -13q0 -7 -5 -12h-175q-4 8 -4 11q0 9 4 14h29q21 2 21 25v365h-54l18 25h36v20q0 49 34.5 107.5t89 100.5t105.5 42q85 0 85 -54q0 -10 -12 -17.5t-23 -7.5q-17 0 -30.5 14.5t-37.5 14.5h-5q-57 0 -94 -34.5 t-37 -93.5v-92h186v20q0 54 31.5 121.5t86.5 118t111 50.5q85 0 85 -54q0 -10 -12 -17.5t-23 -7.5z" />
<glyph unicode="ffl" horiz-adv-x="752" d="M354 631q-17 0 -30.5 14.5t-37.5 14.5h-5q-57 0 -94 -34.5t-37 -93.5v-92h186v20q0 54 31.5 121.5t86.5 118t111 50.5q37 0 59 -17q29 17 61 17q-10 -27 -10 -50v-650q0 -25 20 -25h30q5 -5 5 -13q0 -7 -5 -12h-175q-6 6 -6 13t6 12h29q21 2 21 25v600q0 20 -18 35 t-38 15q-61 0 -97 -43.5t-36 -106.5v-110h82l-18 -25h-64v-365q0 -25 20 -25h30q5 -5 5 -13q0 -7 -5 -12h-175q-5 9 -4 13q0 7 4 12h29q21 2 21 25v365h-186v-365q0 -25 20 -25h30q5 -5 5 -13q0 -7 -5 -12h-175q-4 8 -4 11q0 9 4 14h29q21 2 21 25v365h-54l18 25h36v20 q0 49 34.5 107.5t89 100.5t105.5 42q85 0 85 -54q0 -10 -12 -17.5t-23 -7.5z" />
<glyph unicode=" "  horiz-adv-x="350" />
<glyph unicode="&#x09;" horiz-adv-x="350" />
<glyph unicode="&#xa0;" horiz-adv-x="350" />
<glyph unicode="!" horiz-adv-x="244" d="M121 91q21 0 36 -15t15 -36t-15 -35.5t-36 -14.5t-35.5 14.5t-14.5 35.5t14.5 36t35.5 15zM121 710q19 0 35 -14.5t16 -32.5v-4l-51 -509l-50 509v4q0 19 15.5 33t34.5 14z" />
<glyph unicode="&#x22;" horiz-adv-x="336" d="M212 736q14 14 36 14q21 0 36 -15l-22 -241h-26zM51 736q14 14 36 14q21 0 36 -15l-22 -241h-26z" />
<glyph unicode="#" horiz-adv-x="478" d="M313 360h-118l-19 -119h119zM436 241v-49h-97l-28 -192h-52l28 192h-119l-30 -192h-51l29 192h-95v49h103l19 119h-98v49h105l28 181h51l-27 -181h118l27 181h51l-26 -181h86v-49h-94l-17 -119h89z" />
<glyph unicode="$" horiz-adv-x="532" d="M293 290v-265q54 12 90 46t36 85q0 52 -33.5 81t-92.5 53zM235 681q-45 -13 -75.5 -53t-30.5 -86q0 -81 106 -127v266zM47 499q0 91 48.5 144t139.5 64v43h58v-40q28 -2 71.5 -14t83.5 -36t40 -51q0 -11 -8 -19t-19 -8q-16 0 -37.5 21t-55 46t-75.5 32v-288 q29 -10 39 -14t36 -14.5t36.5 -17.5t30.5 -19.5t29 -25t20 -29t15 -37t4 -43.5q0 -92 -57 -141.5t-153 -59.5v-52h-58v50q-32 2 -79.5 17.5t-89.5 45t-42 62.5q0 13 9 21.5t22 8.5q16 0 32 -20.5t30 -44.5t42.5 -44.5t65.5 -20.5l10 1v296q-42 15 -68.5 28t-57.5 35 t-46.5 53t-15.5 71z" />
<glyph unicode="%" horiz-adv-x="825" d="M559 710q-169 -465 -239 -720h-68q154 389 240 720h67zM179 688q-30 0 -52 -29.5t-31 -64t-9 -64.5q0 -35 5.5 -67.5t18 -64t37.5 -51t60 -19.5q31 0 53 29t30.5 63.5t8.5 65.5q0 202 -121 202zM618 370q-30 0 -52 -29.5t-31 -64t-9 -64.5q0 -35 5.5 -67.5t18 -64 t37.5 -51t60 -19.5q31 0 53 29t30.5 63.5t8.5 65.5q0 202 -121 202zM192 710q79 0 122.5 -60t43.5 -141t-43.5 -141t-122.5 -60q-78 0 -121.5 60t-43.5 141t43.5 141t121.5 60zM631 392q79 0 122.5 -60t43.5 -141t-43.5 -141t-122.5 -60q-78 0 -121.5 60t-43.5 141t43.5 141 t121.5 60z" />
<glyph unicode="&#x26;" horiz-adv-x="662" d="M210 305q-35 -22 -55 -38t-39 -45t-19 -62q0 -50 37 -92.5t86 -42.5q43 0 125 67q-69 84 -135 213zM271 370q30 16 51 30.5t39.5 41t18.5 55.5q0 32 -22 55t-54 23q-31 0 -50.5 -22t-19.5 -53q0 -54 37 -130zM509 390q0 22 -10.5 28.5t-31.5 6.5h-17l-5 13l5 12h175 q5 -5 5 -12q0 -8 -5 -13h-25q-14 0 -29 -32.5t-53.5 -108.5t-95.5 -151q62 -82 146 -82q41 0 85 38q-19 -44 -54 -71.5t-80 -27.5q-77 0 -152 79q-88 -79 -192 -79q-67 0 -107 33.5t-40 99.5q0 40 12.5 71.5t41.5 58.5t50.5 42t63.5 40q-31 87 -31 129q0 57 40 96.5t97 39.5 q51 0 85.5 -28.5t34.5 -78.5q0 -29 -11 -53t-34 -42.5t-42 -30t-50 -26.5q59 -112 117 -183q40 55 73.5 120.5t33.5 111.5z" />
<glyph unicode="'" horiz-adv-x="177" d="M128 735l-23 -241h-26l-23 242q14 14 36 14q21 0 36 -15z" />
<glyph unicode="(" horiz-adv-x="229" d="M207 710q-29 -85 -45 -139.5t-30.5 -132.5t-14.5 -146q0 -171 90 -402h-40q-59 116 -92 211t-33 191q0 64 24 150t41 127t60 141h40z" />
<glyph unicode=")" d="M22 710h40q43 -100 60 -141t41 -127t24 -150q0 -96 -33 -191t-92 -211h-40q90 231 90 402q0 68 -14.5 146t-30.5 132.5t-45 139.5z" />
<glyph unicode="*" horiz-adv-x="351" d="M174 700q29 0 29 -42q0 -12 -8 -32.5t-8 -32.5q0 -10 1 -15q20 5 42 34.5t47 29.5q10 0 16 -9t6 -20q0 -17 -11.5 -26t-23 -10.5t-29.5 -1.5h-4q-15 0 -36 -15q11 -9 39 -14.5t48 -14t20 -27.5q0 -12 -9 -20t-21 -8q-24 0 -45.5 29t-38.5 34q-1 -5 -1 -16t8 -31.5 t8 -33.5q0 -35 -29 -35q-31 0 -31 35q0 19 10 38t10 29q0 5 -2 15q-22 -4 -42 -33t-44 -29q-26 0 -26 27q0 19 17.5 27.5t44.5 14t37 12.5q-17 16 -38 16h-19q-16 0 -30 10t-14 25q0 12 7.5 21t18.5 9q19 0 46 -28t43 -34q2 10 2 16q0 12 -10.5 31t-10.5 33q0 42 31 42z" />
<glyph unicode="+" horiz-adv-x="468" d="M15 248h190v192h58v-192h190v-57h-190v-191h-58v191h-190v57z" />
<glyph unicode="," horiz-adv-x="217" d="M93 91q37 0 54 -31.5t17 -72.5q0 -59 -32 -103t-89 -84q22 29 32 42.5t22.5 41.5t12.5 51t-10.5 37t-23 18.5t-23 17t-10.5 32.5q0 21 14.5 36t35.5 15z" />
<glyph unicode="-" horiz-adv-x="438" d="M69 248h300v-57h-300v57z" />
<glyph unicode="." d="M113 104q24 0 41 -17t17 -41q0 -25 -16.5 -41t-41.5 -16q-24 0 -41 16.5t-17 40.5t17 41t41 17z" />
<glyph unicode="/" horiz-adv-x="291" d="M320 710q-169 -465 -239 -720h-68q154 389 240 720h67z" />
<glyph unicode="0" horiz-adv-x="631" d="M293 578q-38 0 -69 -27t-47.5 -67.5t-25 -81t-8.5 -75.5q0 -54 9 -105t29 -101t61 -80.5t97 -30.5q40 0 70.5 26t46.5 66.5t24 81t8 76.5q0 318 -195 318zM314 600q119 0 187.5 -91.5t68.5 -213.5q0 -78 -27.5 -146t-87 -113.5t-141.5 -45.5q-80 0 -139.5 45.5 t-87.5 113.5t-28 146t27 145.5t86.5 113.5t141.5 46z" />
<glyph unicode="1" horiz-adv-x="279" d="M190 600q-10 -27 -10 -50v-500q0 -16 13 -20.5t37 -4.5q5 -5 5 -13q0 -7 -5 -12h-175q-5 7 -5 12q0 8 5 13q16 0 25 1t17 6.5t8 16.5v432l-58 52q8 4 41 25.5t56 31.5t46 10z" />
<glyph unicode="2" horiz-adv-x="541" d="M256 30q66 3 109.5 14t59.5 25.5t24 29t14 24t19 9.5q16 0 25 -18l-56 -114h-414q2 60 37.5 114t85 93.5t98.5 76.5t83.5 79t34.5 85q0 59 -36 93t-93 34q-44 0 -71.5 -16t-36.5 -38.5t-14 -45.5t-13 -39t-24 -16q-15 0 -25 10t-10 25q0 50 36.5 84.5t82.5 47.5t94 13 q79 0 136 -40t57 -115q0 -55 -34.5 -103t-84 -83.5t-99 -69.5t-84 -74t-34.5 -82v-3h133z" />
<glyph unicode="3" horiz-adv-x="486" d="M162 287q78 2 131.5 44t53.5 117q0 54 -37.5 90.5t-91.5 36.5q-40 0 -63.5 -16t-30 -38.5t-10 -45.5t-11 -39t-25.5 -16q-15 0 -25 10.5t-10 25.5q0 73 58 108.5t136 35.5q70 0 117.5 -43t47.5 -112q0 -41 -23.5 -85t-58.5 -64q107 -46 107 -166q0 -100 -66 -170 t-165 -70q-17 0 -43 5t-53.5 14t-47 25.5t-19.5 36.5q0 12 11 23.5t23 11.5q15 0 27.5 -14t22 -31t35 -31t63.5 -14q67 0 98 55t31 127q0 61 -30.5 107t-87.5 46q-37 0 -70 -22z" />
<glyph unicode="4" horiz-adv-x="450" d="M266 600l49 -30q-1 -2 -57 -112.5t-97.5 -198.5t-41.5 -103q0 -21 40 -21h80v139l85 75q-10 -27 -10 -50v-164q46 0 106 21v-83q-16 2 -33.5 4t-39 4.5t-33.5 3.5v-146q0 -16 13 -20.5t37 -4.5q5 -5 5 -13q0 -7 -5 -12h-175q-5 7 -5 12q0 8 5 13q16 0 25 1t17 6.5t8 16.5 v147h-220v9q0 4 23 53t58 120t69.5 139.5t63.5 126.5t33 67z" />
<glyph unicode="5" horiz-adv-x="472" d="M213 349q102 0 154.5 -58t52.5 -161q0 -99 -59.5 -169.5t-157.5 -70.5q-17 0 -42.5 5t-53 14t-46.5 25.5t-19 36.5q0 12 10 23.5t22 11.5q13 0 26 -14t24 -31t34 -31t52 -14q35 0 60.5 21t39 54t19.5 66t6 65q0 35 -2 60.5t-10.5 54t-23 46t-40.5 29t-62 11.5 q-59 0 -93 -78l-49 5l64 350q88 -15 143 -15q53 0 139 15q-22 -35 -48 -45.5t-73 -10.5q-20 0 -59.5 2t-59.5 2l-42 -217q44 18 94 18z" />
<glyph unicode="6" horiz-adv-x="517" d="M244 424q-29 0 -51.5 -18.5t-34 -47.5t-17 -58t-5.5 -56q0 -42 6 -78t20.5 -72t44 -57t72.5 -21q39 0 65 31.5t34.5 69t8.5 76.5q0 46 -5 81t-18.5 72t-44 57.5t-75.5 20.5zM260 450q91 0 150.5 -69t59.5 -161q0 -93 -58.5 -161.5t-151.5 -68.5q-91 0 -150.5 69 t-59.5 161q0 247 288 490l34 -26q-138 -131 -194 -250q38 16 82 16z" />
<glyph unicode="7" horiz-adv-x="443" d="M421 600q-22 -46 -23 -50q-22 -68 -59.5 -154t-63 -143t-45.5 -139t-20 -166q0 -18 2 -58l-80 20q3 93 24 167t60 164q1 0 29.5 65.5t57 142.5t28.5 100q0 26 -31 26h-112q-34 0 -60 -12t-38 -26.5t-23.5 -26.5t-19.5 -12q-20 0 -34 27l48 75h360z" />
<glyph unicode="8" horiz-adv-x="517" d="M265 344q-138 -59 -138 -161q0 -69 41 -118t108 -49q58 0 85.5 46.5t27.5 109.5q0 125 -124 172zM305 384q69 -24 113 -70.5t44 -114.5q0 -92 -56.5 -150.5t-148.5 -58.5t-148.5 58.5t-56.5 150.5q0 50 40.5 104.5t88.5 80.5q-38 23 -68.5 69.5t-30.5 89.5q0 75 52 121 t128 46q75 0 120 -46t45 -121q0 -44 -39 -90t-83 -69zM237 414q49 18 89 55t40 81q0 49 -34.5 95.5t-81.5 46.5q-44 0 -72.5 -42.5t-28.5 -88.5q0 -104 88 -147z" />
<glyph unicode="9" horiz-adv-x="517" d="M271 166q29 0 51.5 18.5t34 47.5t17 58t5.5 56q0 42 -6 78t-20.5 72t-44 57t-72.5 21q-39 0 -65 -31.5t-34.5 -69t-8.5 -76.5q0 -46 5 -81t18.5 -72t44 -57.5t75.5 -20.5zM255 140q-91 0 -150.5 69t-59.5 161q0 93 58.5 161.5t151.5 68.5q91 0 150.5 -69t59.5 -161 q0 -72 -23.5 -141t-67 -129.5t-90 -109.5t-107.5 -100l-34 26q57 54 80 77t60.5 70.5t59.5 94.5q-44 -18 -88 -18z" />
<glyph unicode=":" horiz-adv-x="230" d="M112 105q24 0 41 -17t17 -41q0 -25 -16.5 -41t-41.5 -16q-24 0 -41 16.5t-17 40.5t17 41t41 17zM112 450q24 0 41 -17t17 -41q0 -25 -16.5 -41t-41.5 -16q-24 0 -41 16.5t-17 40.5t17 41t41 17z" />
<glyph unicode=";" horiz-adv-x="222" d="M108 450q24 0 41 -17t17 -41q0 -25 -16.5 -41t-41.5 -16q-24 0 -41 16.5t-17 40.5t17 41t41 17zM96 91q37 0 54 -31.5t17 -72.5q0 -59 -32 -103t-89 -84q22 29 32 42.5t22.5 41.5t12.5 51t-10.5 37t-23 18.5t-23 17t-10.5 32.5q0 21 14.5 36t35.5 15z" />
<glyph unicode="&#x3c;" horiz-adv-x="496" d="M460 -8l-442 199v57l442 200v-62l-366 -166l366 -167v-61z" />
<glyph unicode="=" horiz-adv-x="576" d="M69 340h438v-57h-438v57zM69 156h438v-57h-438v57z" />
<glyph unicode="&#x3e;" horiz-adv-x="496" d="M36 -8v61l365 167l-365 166v62l442 -200v-57z" />
<glyph unicode="?" horiz-adv-x="352" d="M169 91q21 0 36 -15t15 -36t-15 -35.5t-36 -14.5t-35.5 14.5t-14.5 35.5t14.5 36t35.5 15zM30 662q0 26 42 37t77 11q77 0 125 -58t48 -136q0 -37 -12.5 -65t-32 -51t-40.5 -51t-40 -79t-28 -120q-3 16 -11 53.5t-13 67.5t-5 53q0 14 18.5 35.5t40.5 42t40.5 57 t18.5 77.5q0 50 -25 101t-70 51q-19 0 -55 -26t-52 -26q-10 0 -18 8t-8 18z" />
<glyph unicode="@" horiz-adv-x="688" d="M405 412q-52 0 -88 -57.5t-36 -112.5q0 -30 13 -53t41 -23q44 0 75.5 69t31.5 120q0 57 -37 57zM370 20q43 0 84.5 11t68 22.5t33.5 11.5q10 0 10 -13q0 -16 -70.5 -39t-133.5 -23q-134 0 -230 84t-96 216t96 221t229 89q118 0 205 -72.5t87 -187.5q0 -76 -45.5 -144.5 t-118.5 -68.5q-31 0 -54 17.5t-27 47.5q-49 -64 -111 -64q-36 0 -57.5 30.5t-21.5 68.5q0 78 50.5 151.5t124.5 73.5q25 0 38.5 -11t25.5 -36l9 35h61q-16 -41 -38 -128.5t-22 -114.5q0 -41 35 -41q34 0 62 31t40.5 69.5t12.5 72.5v2q3 13 3 27q0 78 -76.5 148t-166.5 70 q-3 0 -8 -0.5t-8 -0.5q-90 0 -176 -92t-86 -196q0 -115 78.5 -191t192.5 -76z" />
<glyph unicode="A" horiz-adv-x="524" d="M187 370h122l-62 240zM292 700l176 -650q10 -25 30 -25h20q5 -5 5 -13q0 -5 -5 -12h-175q-5 5 -5 12q0 8 5 13h25q26 2 26 19q0 1 -0.5 3t-0.5 3l-74 280h-141l-72 -280q-1 -2 -1 -6q0 -19 34 -19h24q5 -5 5 -13q0 -5 -5 -12h-153q-5 5 -5 12q0 8 5 13h23q20 0 27 25 l169 650h63z" />
<glyph unicode="B" horiz-adv-x="590" d="M35 25q19 1 28 2t15.5 6.5t6.5 16.5v600q0 15 -8.5 20t-31.5 5h-10q-3 2 -5 13q1 5 5 12h279q77 0 132.5 -37.5t55.5 -109.5q0 -123 -98 -150q66 -21 109 -76.5t43 -124.5q0 -88 -62 -145t-155 -57h-304q-6 3 -5 12q-1 4 5 13zM160 370v-308q2 -24 10 -30.5t41 -6.5h128 q63 0 97 45.5t34 110.5q0 62 -40 125.5t-96 63.5h-174zM160 650v-238h144q52 1 81 43.5t29 97.5q0 49 -39 85.5t-88 36.5h-102q-14 0 -19.5 -5.5t-5.5 -19.5z" />
<glyph unicode="C" horiz-adv-x="607" d="M595 115q0 -36 -70 -80.5t-161 -44.5q-95 0 -171 52t-116 134.5t-40 175.5q0 145 91 251.5t236 106.5q29 0 76 -11.5t90 -36t43 -53.5q0 -11 -8 -19t-19 -8q-14 0 -33 16t-37 35t-52.5 35t-76.5 16q-65 0 -115 -50t-73 -116t-23 -128q0 -50 8.5 -100.5t28.5 -100.5 t49 -88t73.5 -62t98.5 -24q38 0 66.5 20.5t42 44.5t29.5 44.5t32 20.5q13 0 22 -8.5t9 -21.5z" />
<glyph unicode="D" horiz-adv-x="661" d="M160 650v-600q0 -16 7.5 -20.5t31.5 -4.5h127q64 0 112 49t69 112t21 124q0 53 -7.5 102t-26 98t-47 84.5t-74 57.5t-102.5 22h-33q-51 0 -64.5 -3.5t-13.5 -20.5zM85 650q0 15 -8 20t-17.5 4t-18.5 2t-11 12q1 8 5 12h253q148 0 241.5 -100t93.5 -248q0 -143 -91 -247.5 t-236 -104.5h-261l-5 12l5 13q32 1 41 5t9 20v600z" />
<glyph unicode="E" horiz-adv-x="522" d="M78 650q0 15 -8 20t-17.5 4t-18.5 2t-11 12q2 9 5 12h406l56 -114q-9 -18 -25 -18q-12 0 -20.5 11t-21 27t-34.5 31.5t-71.5 26.5t-121.5 11h-16q-14 0 -20.5 -5t-6.5 -20v-280h147q15 2 20 8.5t5 27.5v32q5 5 13 5q7 0 12 -5v-175q-7 -5 -12 -5q-8 0 -13 5v36 q-1 21 -5 26.5t-20 5.5h-147v-281q1 -17 8 -21t35 -4q76 0 130 11t78 26.5t38 31.5t23 27t20 11q16 0 25 -18l-56 -114h-426q-4 4 -5 12q2 13 28.5 14.5t26.5 23.5v600z" />
<glyph unicode="F" horiz-adv-x="487" d="M465 568q-12 0 -20.5 11t-21 27t-34.5 31.5t-71.5 26.5t-121.5 11q-26 0 -34.5 -4.5t-8.5 -20.5v-280h147q16 0 20.5 6t4.5 25v37q5 5 13 5q7 0 12 -5v-175q-3 -5 -12 -5q-8 0 -13 5v43q0 15 -5 20t-20 5h-147v-281q0 -25 19 -25h31q5 -5 5 -13q0 -7 -5 -12h-175 q-5 7 -5 12q0 8 5 13h29q21 1 21 25v600q0 25 -24 25h-26q-4 6 -5 13q1 8 5 12h406l56 -114q-9 -18 -25 -18z" />
<glyph unicode="G" horiz-adv-x="655" d="M364 710q29 0 76 -11.5t90 -36t43 -53.5q0 -11 -8 -19t-19 -8q-15 0 -33.5 16t-36.5 35t-52.5 35t-76.5 16q-65 0 -115 -50t-73 -116t-23 -128q0 -63 14.5 -126t43.5 -120.5t81 -93t119 -35.5q30 0 63.5 13t56.5 33v251q0 16 -5.5 20t-25.5 5h-19q-5 5 -5 13q0 7 5 12 h175q5 -3 5 -12q0 -8 -5 -13h-22q-15 0 -20 -5t-5 -20v-250q-75 -72 -228 -72q-95 0 -171 52t-116 134.5t-40 175.5q0 145 91 251.5t236 106.5z" />
<glyph unicode="H" horiz-adv-x="563" d="M78 49v602q0 11 -8 16.5t-17 6.5t-25 1q-5 5 -5 13q0 5 5 12h175q5 -5 5 -12q0 -8 -5 -13q-16 0 -25 -1t-17 -7t-8 -17v-280h257v281q0 11 -8 16.5t-17 6.5t-25 1q-5 5 -5 13q0 5 5 12h175q5 -5 5 -12q0 -8 -5 -13q-16 0 -25 -1t-17 -7t-8 -17v-600q0 -16 13 -20.5 t37 -4.5q5 -5 5 -13q0 -7 -5 -12h-175q-5 7 -5 12q0 8 5 13q16 0 25 1t17 6.5t8 16.5v281h-257v-280q0 -16 13 -20.5t37 -4.5q5 -5 5 -13q0 -7 -5 -12h-175q-5 7 -5 12q0 8 5 13q16 0 25 1t17 6.5t8 16.5z" />
<glyph unicode="I" d="M78 50v601q0 11 -8 16.5t-17 6.5t-25 1q-5 5 -5 13q0 5 5 12h175q5 -5 5 -12q0 -8 -5 -13q-16 0 -25 -1t-17 -7t-8 -17v-600q0 -16 13 -20.5t37 -4.5q5 -5 5 -13q0 -7 -5 -12h-175q-5 7 -5 12q0 8 5 13q16 0 25 1t17 7t8 17z" />
<glyph unicode="J" horiz-adv-x="526" d="M374 190v461q0 16 -13 20.5t-37 4.5q-5 5 -5 13q0 5 5 12h175q5 -5 5 -12q0 -8 -5 -13q-16 0 -25 -1t-17 -7t-8 -17v-445q0 -98 -74.5 -157t-175.5 -59q-27 0 -66.5 9t-75.5 31t-36 49q0 12 7.5 21t19.5 9q9 0 25 -14.5t33 -32.5t48.5 -32.5t68.5 -14.5q76 0 113.5 48 t37.5 127z" />
<glyph unicode="K" horiz-adv-x="548" d="M78 50v600q0 16 -13 20.5t-37 4.5q-5 5 -5 13q0 5 5 12h175q5 -5 5 -12q0 -8 -5 -13q-16 0 -25 -1t-17 -7t-8 -17v-242l230 242q5 8 5 13q0 12 -24 12h-30q-4 4 -5 13q1 8 5 12h175q5 -5 5 -12q0 -8 -5 -13h-34l-256 -269l291 -381h25q5 -5 5 -13q0 -7 -5 -12h-175 q-12 17 0 25l29 1q25 2 25 13q0 6 -4 11l-257 337v-337q0 -16 13 -20.5t37 -4.5q5 -5 5 -13q0 -7 -5 -12h-175q-5 7 -5 12q0 8 5 13q16 0 25 1t17 7t8 17z" />
<glyph unicode="L" horiz-adv-x="532" d="M196 25q76 0 130 11t78 26.5t38 31.5t23 27t20 11q16 0 25 -18l-56 -114h-426q-5 4 -5 15q0 7 5 10h7q26 0 34.5 5.5t8.5 19.5v600q0 16 -13 20.5t-37 4.5q-5 5 -5 13q0 5 5 12h175q5 -5 5 -12q0 -8 -5 -13q-16 0 -25 -1t-17 -7t-8 -17v-600q0 -15 6.5 -20t20.5 -5h16z " />
<glyph unicode="M" horiz-adv-x="613" d="M585 700q2 -1 5 -12q-1 -9 -5 -13h-7q-27 0 -35 -5.5t-8 -19.5v-600q0 -16 13 -20.5t37 -4.5q5 -5 5 -13q0 -5 -5 -12h-175q-5 5 -5 12q0 8 5 13q16 0 25 1t17 7t8 17v530l-149 -292q-3 -5 -5.5 -7t-5.5 -2.5t-4 -0.5q-3 2 -8.5 6t-7.5 6l-150 290v-530q0 -25 53 -25 q5 -5 5 -13q0 -5 -5 -12h-155q-5 5 -5 12q0 8 5 13q52 0 52 25v600q-1 16 -8 20.5t-27 4.5h-17q-5 5 -5 13q0 9 5 12h105l144 -293q7 -17 19 -17q9 0 19 17l145 293h125z" />
<glyph unicode="N" horiz-adv-x="531" d="M90 650q0 14 -10 19.5t-22 4.5t-22.5 2t-12.5 12q1 8 5 12h125l257 -555v505q0 14 -10 19.5t-22 4.5t-22 2t-10 12q0 5 5 12h175q5 -5 5 -12q0 -15 -23 -15q-3 0 -9.5 0.5t-9.5 0.5q-29 0 -29 -21v-597q0 -39 13 -56h-64l-269 570v-520q0 -25 63 -25q5 -5 5 -13 q0 -7 -5 -12h-175q-5 7 -5 12q0 8 5 13q62 0 62 25v600z" />
<glyph unicode="O" horiz-adv-x="729" d="M339 684q-47 0 -87 -30t-64.5 -76t-38 -95.5t-13.5 -92.5q0 -64 14.5 -127t43.5 -120t81 -92.5t119 -35.5q48 0 88 30t64 76t37 95.5t13 93.5q0 69 -12.5 131t-40.5 118.5t-80.5 90.5t-123.5 34zM364 710q143 0 235 -106.5t92 -251.5t-91.5 -253.5t-235.5 -108.5 q-95 0 -171 52t-116 134.5t-40 175.5q0 145 91 251.5t236 106.5z" />
<glyph unicode="P" horiz-adv-x="515" d="M153 365v-315q0 -16 13 -20.5t37 -4.5q5 -5 5 -13q0 -7 -5 -12h-175q-5 7 -5 12q0 8 5 13q16 0 25 1t17 7t8 17v600q0 16 -13 20.5t-37 4.5q-4 6 -5 13q2 9 5 12h279q75 0 129 -54t54 -128q0 -76 -47 -131t-122 -55q-81 0 -168 33zM153 650v-256q45 -20 121 -20 q65 0 101.5 38.5t36.5 105.5q0 157 -144 157h-90q-14 0 -19.5 -5.5t-5.5 -19.5z" />
<glyph unicode="Q" horiz-adv-x="737" d="M340 684q-47 0 -87 -30t-64.5 -76t-38 -95.5t-13.5 -92.5q0 -64 14.5 -127t43.5 -120t81 -92.5t119 -35.5q48 0 88 30t64 76t37 95.5t13 93.5q0 69 -12.5 131t-40.5 118.5t-80.5 90.5t-123.5 34zM365 710q143 0 235 -106.5t92 -251.5q0 -125 -70 -226.5t-190 -128.5 q3 -68 83 -127t151 -60l-88 -60q-65 26 -126 99.5t-68 140.5q-154 0 -250 103t-96 259q0 145 91 251.5t236 106.5z" />
<glyph unicode="R" horiz-adv-x="550" d="M153 650v-256q45 -20 121 -20q64 0 98.5 38.5t34.5 105.5q0 74 -34 115.5t-105 41.5h-90q-14 0 -19.5 -5.5t-5.5 -19.5zM153 365v-315q0 -16 13 -20.5t37 -4.5q5 -5 5 -13q0 -7 -5 -12h-175q-5 7 -5 12q0 8 5 13q16 0 25 1t17 7t8 17v600q0 15 -4.5 20t-22.5 5h-23 q-5 6 -5 12q0 5 5 13h279q75 0 131.5 -54.5t56.5 -127.5q0 -74 -46.5 -128.5t-121.5 -57.5h-7l-44 3q17 -54 64.5 -128.5t97 -128t72.5 -53.5h25q5 -5 5 -13q0 -7 -5 -12h-87q-44 0 -116.5 98.5t-141.5 248.5q-26 8 -37 18z" />
<glyph unicode="S" horiz-adv-x="537" d="M257 -10q-94 0 -162.5 45t-68.5 80q0 13 9 21.5t22 8.5q16 0 32 -20.5t29.5 -44.5t42 -44.5t66.5 -20.5q73 0 133.5 36t60.5 105q0 37 -20.5 66.5t-53.5 49.5t-72.5 38t-79 37t-72.5 41.5t-53.5 57t-20.5 78.5q0 88 63.5 137t168.5 49q29 0 76 -11.5t90 -36t43 -53.5 q0 -11 -8 -19t-19 -8q-16 0 -34 16t-35 35t-53.5 35t-84.5 16q-49 0 -87 -46.5t-38 -96.5q0 -47 38.5 -80t93.5 -55.5t110 -47.5t93.5 -70.5t38.5 -109.5q0 -92 -71.5 -140t-176.5 -48z" />
<glyph unicode="T" horiz-adv-x="702" d="M640 568q-13 0 -21 11t-17 27t-25.5 31.5t-56 26.5t-99.5 11h-16q-14 0 -20.5 -5t-6.5 -20v-600q0 -16 13 -20.5t37 -4.5q5 -5 5 -13q0 -7 -5 -12h-175q-5 7 -5 12q0 8 5 13q16 0 25 1t17 7t8 17v600q0 15 -6.5 20t-20.5 5h-16q-90 0 -121.5 -16t-77.5 -87q-10 -4 -15 -4 q-16 0 -25 18l56 114h532l56 -114q-9 -18 -25 -18z" />
<glyph unicode="U" horiz-adv-x="609" d="M13 700h175q5 -5 5 -12q0 -8 -5 -13h-26q-8 -1 -12.5 -2.5t-8 -7t-3.5 -15.5v-441q0 -81 53.5 -137.5t134.5 -56.5q73 0 109 49.5t36 125.5v455q0 30 -27 30h-23q-6 7 -6 11q-1 5 6 14h175q5 -5 5 -12q0 -8 -5 -13h-26q-24 -4 -24 -30v-439q0 -98 -74.5 -157t-175.5 -59 q-93 0 -163 56.5t-70 147.5v456q0 25 -27 25h-23q-5 5 -5 13q0 9 5 12z" />
<glyph unicode="V" horiz-adv-x="620" d="M26 675q-6 5 -6 12q-1 2 6 13h175q5 -5 5 -12q0 -8 -5 -13h-30q-21 -3 -21 -18q0 -4 1 -7l172 -546l169 546q1 3 1 8q0 17 -26 17h-32q-5 7 -5 12q-1 7 5 13h158q5 -5 5 -12q0 -8 -5 -13h-33q-19 0 -27 -27l-202 -648l-48 -10l-207 660q-8 25 -31 25h-19z" />
<glyph unicode="W" horiz-adv-x="926" d="M25 675q-5 7 -5 11q0 6 5 14h175q5 -5 5 -12q0 -8 -5 -13h-28q-24 -1 -24 -14q0 -6 2 -11l172 -546l111 360l-58 186q-9 25 -25 25h-25q-5 7 -5 12q-1 7 5 13h175q5 -5 5 -12q0 -8 -5 -13h-24q-27 -2 -27 -17q0 -5 1 -8l172 -546l169 546q-2 25 -21 25h-36q-6 6 -6 12 q0 7 6 13h158q5 -5 5 -12q0 -8 -5 -13h-26q-27 -3 -34 -27l-202 -648l-48 -10l-128 408l-124 -398l-48 -10l-207 660q-5 14 -10 19.5t-15 5.5h-25z" />
<glyph unicode="X" horiz-adv-x="548" d="M26 700h175q5 -5 5 -12q0 -8 -5 -13h-30q-23 -2 -23 -14q0 -3 3 -11l133 -248l132 248q4 7 4 13q0 12 -31 12h-37q-5 5 -5 13q0 7 5 12h175q5 -7 5 -13q0 -2 -5 -12h-26q-26 -2 -38 -25l-156 -292l165 -308q13 -25 50 -25q5 -5 5 -13q0 -7 -5 -12h-175q-6 8 -6 12 q-1 6 6 13h31q23 2 23 13q0 5 -4 12l-127 238l-128 -238q-5 -10 -5 -14q0 -11 30 -11h39q6 -6 6 -13q0 -6 -6 -12h-175q-5 5 -5 12q0 8 5 13h25q26 2 39 25l151 282l-170 318q-13 24 -50 25q-4 8 -4 11q0 9 4 14z" />
<glyph unicode="Y" horiz-adv-x="580" d="M38 700h175q5 -5 5 -12q0 -8 -5 -13h-13q-35 0 -37 -25l149 -272l126 272v5q0 12 -5.5 16t-21.5 4h-37q-5 5 -5 13q0 7 5 12h175l5 -12q-2 -6 -5 -13h-35q-18 -3 -29 -25l-152 -318v-282q0 -16 13 -20.5t37 -4.5q5 -5 5 -13q0 -7 -5 -12h-175q-5 7 -5 12q0 8 5 13 q16 0 25 1t17 7t8 17v282l-170 318q-13 25 -50 25q-5 6 -5 13t5 12z" />
<glyph unicode="Z" horiz-adv-x="502" d="M336 675q-75 0 -128 -11t-76.5 -26.5t-37.5 -31.5t-22.5 -27t-19.5 -11q-16 0 -25 18l56 114h392l5 -12q-4 -15 -80.5 -155.5t-167.5 -304.5t-98 -178q0 -15 6.5 -20t20.5 -5h16q77 0 130.5 11t77.5 26.5t38 31.5t23 27t20 11q16 0 25 -18l-56 -114h-426l-5 12l5 13 q33 2 50 33l323 592q0 25 -30 25h-16z" />
<glyph unicode="[" horiz-adv-x="251" d="M250 -125v-25h-181v852h181v-25q-115 0 -115 -44v-707q0 -12 4.5 -21t15.5 -14.5t19 -8.5t25.5 -4.5t24.5 -2t26 -0.5z" />
<glyph unicode="\" horiz-adv-x="322" d="M7 710h67q86 -331 240 -720h-68q-70 255 -239 720z" />
<glyph unicode="]" horiz-adv-x="251" d="M1 -125h5q24 0 38.5 1t33.5 5.5t28.5 16t9.5 29.5v708q0 42 -115 42v25h181v-852h-181v25z" />
<glyph unicode="^" horiz-adv-x="443" d="M97 393h-60l158 317h52l158 -317h-60l-124 251z" />
<glyph unicode="_" horiz-adv-x="498" d="M500 -150h-505v50h505v-50z" />
<glyph unicode="`" horiz-adv-x="229" d="M53 673l123 -157l-18 -18l-155 124q0 21 14.5 36t35.5 15z" />
<glyph unicode="a" horiz-adv-x="446" d="M301 85v150l-147 -57q-39 -16 -39 -77q0 -39 24 -62.5t62 -23.5q28 0 64 22t36 48zM185 -10q-61 0 -105.5 24t-44.5 79q0 65 67 91l199 76v40q0 52 -20.5 88t-67.5 36q-26 0 -46.5 -14t-30.5 -30t-22 -30t-23 -14q-12 0 -20.5 9t-8.5 20q0 35 48.5 60t86.5 25 q179 0 179 -130v-249q0 -55 24 -55q11 0 21 14q-1 -21 -19 -30.5t-41 -9.5t-41.5 15.5t-18.5 38.5v2q-39 -56 -116 -56z" />
<glyph unicode="b" horiz-adv-x="531" d="M155 375v-275q0 -40 30.5 -62.5t71.5 -22.5q143 0 143 229q0 35 -15 75.5t-45.5 72.5t-66.5 32q-66 0 -118 -49zM165 750q-10 -23 -10 -50v-300q20 20 56 35t65 15q91 0 150.5 -69t59.5 -161t-59.5 -161t-150.5 -69q-22 0 -60.5 10.5t-58.5 10.5q-21 0 -63 -5.5t-64 -5.5 q-5 5 -5 15q0 3 5 10q16 0 25 1t17 7t8 17v600l-50 50q25 0 67.5 25t67.5 25z" />
<glyph unicode="c" horiz-adv-x="428" d="M406 70q0 -4 -5 -12.5t-17.5 -20t-29 -22t-43.5 -18t-57 -7.5q-91 0 -150.5 69t-59.5 161q0 93 58.5 161.5t151.5 68.5q23 0 51.5 -3.5t59.5 -17.5t31 -36q0 -12 -9.5 -21t-21.5 -9q-19 0 -62 30.5t-65 30.5q-29 0 -51 -19t-33.5 -48t-17.5 -58t-6 -55q0 -42 6 -78 t20.5 -72.5t44.5 -57.5t72 -21q55 0 106 59q7 9 15 9q12 0 12 -13z" />
<glyph unicode="d" horiz-adv-x="531" d="M375 375q-52 49 -118 49q-36 0 -66.5 -32t-45.5 -72.5t-15 -75.5q0 -228 143 -228q41 0 71.5 22t30.5 62v275zM325 700q24 0 67 25t68 25q-10 -23 -10 -50v-650q0 -26 27 -26q3 0 11 0.5t12 0.5q5 -5 5 -13q0 -7 -5 -12l-125 -10v34q-58 -34 -121 -34q-91 0 -150.5 69 t-59.5 161t58.5 161t151.5 69q29 0 65 -15t56 -35v250z" />
<glyph unicode="e" horiz-adv-x="459" d="M238 424q-39 0 -65.5 -34t-35.5 -73.5t-9 -78.5l211 106q-7 29 -40 54.5t-61 25.5zM273 15q26 0 50 11t37.5 23.5t25 23.5t15.5 11q8 0 14 -5.5t6 -13.5q0 -10 -20 -27t-60.5 -32.5t-86.5 -15.5q-93 0 -151.5 68.5t-58.5 161.5t58.5 161.5t151.5 68.5q116 0 185 -92 l-311 -152q2 -75 39 -133t106 -58z" />
<glyph unicode="f" horiz-adv-x="259" d="M365 671q-17 0 -30.5 14.5t-37.5 14.5q-62 0 -99 -43t-37 -107v-110h82l-18 -25h-64v-365q0 -25 20 -25h30q5 -5 5 -13q0 -7 -5 -12h-175q-4 8 -4 11q0 9 4 14h29q21 2 21 25v365h-54l18 25h36v20q0 54 31.5 121.5t86.5 118t111 50.5q85 0 85 -54q0 -10 -12 -17.5 t-23 -7.5z" />
<glyph unicode="g" horiz-adv-x="500" d="M88 -106q0 -44 34.5 -77t79.5 -33q36 0 68.5 8.5t58.5 32.5t26 60q0 38 -10 62t-31 34.5t-40.5 13.5t-50.5 3h-32q-40 0 -63 6q-40 -32 -40 -110zM228 450q39 0 95 -22t73 -22q32 0 32 30v2q-38 14 -38 46q0 17 10.5 28.5t27.5 11.5q19 0 31.5 -20t12.5 -40 q0 -38 -24 -64t-62 -26q10 -29 10 -62q0 -75 -47.5 -124.5t-119.5 -49.5q-35 0 -55 6q-4 -2 -18 -7.5t-22.5 -9.5t-16.5 -11.5t-8 -16.5q0 -37 90 -37q17 0 42 1.5t28 1.5q58 0 102 -45.5t44 -103.5q0 -89 -65 -127.5t-161 -38.5q-73 0 -124.5 44t-51.5 116q0 19 31.5 57 t51.5 49q-53 27 -55 92l101 46q-81 33 -81 139q0 62 52.5 109.5t114.5 47.5zM137 294q0 -41 28 -84t67 -43q42 0 66.5 39t24.5 83q0 41 -27.5 85t-66.5 44q-42 0 -67 -40t-25 -84z" />
<glyph unicode="h" horiz-adv-x="497" d="M165 750q-10 -27 -10 -50v-375q19 29 29.5 42.5t32 37t43.5 34.5t46 11q51 0 82 -36.5t31 -88.5v-275q0 -25 20 -25h30q5 -5 5 -13q0 -7 -5 -12h-175q-5 9 -4 13q0 7 4 12h29q21 2 21 25v250q0 100 -56 100q-48 0 -133 -85v-265q0 -25 20 -25h30q5 -5 5 -13q0 -7 -5 -12 h-175q-4 8 -4 11q0 9 4 14h29q21 2 21 25v600l-50 50h3q24 0 65.5 25t66.5 25z" />
<glyph unicode="i" horiz-adv-x="243" d="M125 673q21 0 36 -15t15 -36t-15 -35.5t-36 -14.5t-35.5 14.5t-14.5 35.5t14.5 36t35.5 15zM172 450q-10 -27 -10 -50v-350q0 -25 20 -25h30q5 -5 5 -13q0 -7 -5 -12h-175q-4 8 -4 11q0 9 4 14h29q21 2 21 25v300l-50 50q24 0 67 25t68 25z" />
<glyph unicode="j" horiz-adv-x="225" d="M115 673q21 0 36 -15t15 -36t-15 -35.5t-36 -14.5t-35.5 14.5t-14.5 35.5t14.5 36t35.5 15zM165 450q-10 -23 -10 -103v-397q0 -36 -6 -68t-19.5 -63.5t-41 -50t-65.5 -18.5q57 26 57 200v400l-50 50q25 0 67.5 25t67.5 25z" />
<glyph unicode="k" horiz-adv-x="495" d="M289 12q2 12 30.5 15.5t28.5 14.5q0 4 -4 8l-189 197v-197q0 -25 20 -25h30q5 -5 5 -13q0 -7 -5 -12h-175q-4 8 -4 11q0 9 4 14h29q21 2 21 25v600l-50 50q25 0 67.5 25t67.5 25q-10 -27 -10 -50v-432l189 122q11 8 11 12q0 9 -31 10.5t-35 15.5l5 12h175q5 -5 5 -12 q0 -8 -5 -13h-25l-224 -147l224 -243h25q5 -5 5 -13q0 -7 -5 -12h-175q-4 4 -5 12z" />
<glyph unicode="l" horiz-adv-x="236" d="M165 750q-10 -27 -10 -50v-650q0 -25 20 -25h30q5 -5 5 -13q0 -7 -5 -12h-175q-4 8 -4 11q0 9 4 14h29q21 2 21 25v600l-50 50h3q24 0 65.5 25t66.5 25z" />
<glyph unicode="m" horiz-adv-x="769" d="M172 450q-10 -27 -10 -50v-75q19 29 29.5 42.5t32 37t43.5 34.5t46 11q49 0 81 -37t32 -87q23 34 40.5 56t49.5 45t62 23q51 0 82 -36.5t31 -88.5v-275q0 -25 20 -25h30q5 -5 5 -13q0 -7 -5 -12h-175q-5 9 -4 13q0 7 4 12h29q21 2 21 25v250q0 100 -56 100 q-45 0 -134 -86v-264q0 -25 20 -25h30q5 -5 5 -13q0 -7 -5 -12h-175q-5 9 -4 13q0 7 4 12h29q21 2 21 25v250q0 100 -56 100q-48 0 -133 -85v-265q0 -25 20 -25h30q5 -5 5 -13q0 -7 -5 -12h-175q-4 8 -4 11q0 9 4 14h29q21 2 21 25v300l-50 50q24 0 67 25t68 25z" />
<glyph unicode="n" horiz-adv-x="504" d="M172 450q-10 -27 -10 -50v-75q19 29 29.5 42.5t32 37t43.5 34.5t46 11q51 0 82 -36.5t31 -88.5v-275q0 -25 20 -25h30q5 -5 5 -13q0 -7 -5 -12h-175q-5 9 -4 13q0 7 4 12h29q21 2 21 25v250q0 100 -56 100q-48 0 -133 -85v-265q0 -25 20 -25h30q5 -5 5 -13q0 -7 -5 -12 h-175q-4 8 -4 11q0 9 4 14h29q21 2 21 25v300l-50 50q24 0 67 25t68 25z" />
<glyph unicode="o" horiz-adv-x="509" d="M238 424q-37 0 -62.5 -32.5t-35.5 -71.5t-10 -76q0 -42 6 -78t20.5 -72t44 -57t72.5 -21q38 0 63.5 31.5t35 69.5t9.5 76q0 46 -5 81t-18.5 72t-44 57.5t-75.5 20.5zM254 450q93 0 151.5 -68.5t58.5 -161.5t-58.5 -161.5t-151.5 -68.5t-151.5 68.5t-58.5 161.5 t58.5 161.5t151.5 68.5z" />
<glyph unicode="p" horiz-adv-x="532" d="M156 65q53 -50 118 -50q36 0 66.5 32t45.5 73t15 76q0 228 -143 228q-41 0 -71.5 -22t-30.5 -62v-275zM165 450l-7 -32v-4q59 36 119 36q92 0 151 -68.5t59 -161.5q0 -92 -58.5 -161t-151.5 -69q-29 0 -65 15t-56 35v-240q0 -25 20 -25h30q5 -5 5 -13q0 -7 -5 -12h-175 q-5 9 -4 13q0 7 4 12h29q21 2 21 25v550l-55 52q29 1 73 24.5t66 23.5z" />
<glyph unicode="q" horiz-adv-x="520" d="M375 65v275q0 40 -30.5 62t-71.5 22q-143 0 -143 -228q0 -57 37.5 -119t89.5 -62q65 0 118 50zM450 400v-600q0 -25 20 -25h30q5 -5 5 -13q0 -7 -5 -12h-175q-5 9 -4 13q0 7 4 12h29q21 2 21 25v240q-20 -20 -56 -35t-65 -15q-91 0 -150.5 69t-59.5 161t58.5 161 t151.5 69q26 0 70 -14t66 -14q40 0 70 28q-10 -36 -10 -50z" />
<glyph unicode="r" horiz-adv-x="410" d="M363 371q-16 0 -30.5 14.5t-37.5 14.5q-48 0 -133 -85v-265q0 -25 20 -25h30q5 -5 5 -13q0 -7 -5 -12h-175q-4 8 -4 11q0 9 4 14h29q21 2 21 25v300l-50 50q24 0 67 25t68 25q-10 -27 -10 -50v-75q19 28 29.5 42.5t31.5 37.5t43.5 34t46.5 11q32 0 58.5 -13t26.5 -41 q0 -10 -12 -17.5t-23 -7.5z" />
<glyph unicode="s" horiz-adv-x="409" d="M220 450q16 0 34 -1.5t43 -6.5t41 -16t16 -27q0 -13 -9.5 -25t-21.5 -12q-17 0 -57.5 31t-61.5 31q-36 0 -60 -19.5t-24 -54.5q0 -31 25.5 -52.5t62 -35t73.5 -29t62.5 -45t25.5 -72.5q0 -41 -16 -67.5t-46.5 -38.5t-59.5 -16t-71 -4q-143 0 -143 55q0 14 9 24.5t23 10.5 q19 0 62 -32.5t64 -32.5q45 0 78.5 21t33.5 64q0 29 -26 50.5t-63 36.5t-74 32t-63 46t-26 70q0 63 49 89t120 26z" />
<glyph unicode="t" horiz-adv-x="340" d="M326 67q-1 -3 -3 -8.5t-11 -18.5t-21 -23t-34.5 -18.5t-49.5 -8.5q-65 0 -97.5 41t-32.5 108v276h-54l18 25q21 0 39 24t28.5 53t24.5 55t29 28q-10 -16 -10 -50v-110h82l-18 -25h-64v-259q0 -29 1.5 -47t8 -43t22.5 -38t42 -13q24 0 41.5 16t28 32t18.5 16q12 0 12 -12z " />
<glyph unicode="u" horiz-adv-x="499" d="M29 400q26 0 68 25t67 25q-10 -23 -10 -50v-260q0 -100 56 -100q48 0 133 85v225l-50 50q24 0 67 25t68 25q-10 -23 -10 -50v-350q0 -26 27 -26q3 0 11 0.5t12 0.5q5 -5 5 -13q0 -7 -5 -12l-125 -10v125q-19 -29 -29.5 -42.5t-32 -37t-43.5 -34.5t-46 -11q-51 0 -82 36.5 t-31 88.5v235z" />
<glyph unicode="v" horiz-adv-x="531" d="M248 0l-209 415h-25q-4 7 -5 13l5 12h175q5 -5 5 -12q0 -8 -5 -13h-31q-19 -3 -19 -25l155 -314l140 312q0 27 -28 27h-31q-5 5 -5 13q0 7 5 12h140l5 -12q-2 -6 -5 -13h-25l-190 -415h-52z" />
<glyph unicode="w" horiz-adv-x="791" d="M248 0l-209 415h-25q-4 7 -5 13l5 12h175q5 -5 5 -12q0 -8 -5 -13h-29q-11 -1 -16 -6t-5 -19l155 -314l83 191l-78 148h-25q-4 7 -5 13l5 12h175q5 -5 5 -12q0 -8 -5 -13h-27q-12 -1 -17.5 -6t-5.5 -19l155 -314l140 312q0 27 -32 27h-27q-5 5 -5 13q0 7 5 12h140l5 -12 q-2 -6 -5 -13h-25l-190 -415h-52l-109 222l-99 -222h-52z" />
<glyph unicode="x" horiz-adv-x="478" d="M125 37q0 -10 29 -10t29 -15q0 -2 -5 -12h-150q-5 5 -5 12q0 8 5 13h25l147 185l-147 206h-25q-5 8 -5 15q0 5 5 10h175q5 -5 5 -12q0 -8 -5 -13h-10q-43 0 -43 -15q0 -4 3 -10l95 -128l103 135q2 2 2 6q0 9 -29.5 10t-29.5 15q0 7 5 12h150q5 -5 5 -12q0 -3 -5 -13h-25 l-150 -186l150 -205h25q5 -5 5 -13q0 -7 -5 -12h-175q-5 5 -5 12q0 9 5 13q53 0 53 15q0 4 -3 10l-94 128l-104 -135q-1 -2 -1 -6z" />
<glyph unicode="y" horiz-adv-x="529" d="M246 2l-207 413h-25q-2 2 -5 13q2 7 5 12h175q5 -5 5 -12q0 -8 -5 -13h-28q-23 -2 -23 -17q0 -5 1 -8l149 -302l131 294q3 9 3 15q0 18 -25 18h-32q-7 7 -7 13q0 5 7 12h150q5 -10 5 -12q0 -3 -5 -13q-24 0 -32.5 -5.5t-18.5 -27.5l-255 -562q-32 -70 -79 -70 q-11 0 -20.5 7.5t-9.5 18.5q0 10 49 61.5t60 76.5z" />
<glyph unicode="z" horiz-adv-x="404" d="M79 440h287l-250 -415h104q21 0 63.5 32.5t61.5 32.5q12 0 22 -9t10 -21q0 -60 -142 -60h-212l248 415h-95q-33 0 -66.5 -30.5t-50.5 -31.5l-27 17z" />
<glyph unicode="{" horiz-adv-x="246" d="M2 255q50 15 67.5 38.5t17.5 74.5v203q0 81 38 109.5t122 29.5q-52 -19 -71.5 -48t-19.5 -86v-193q0 -62 -16 -88t-73 -41q56 -14 72.5 -40.5t16.5 -87.5v-193q0 -55 20 -84t71 -49q-84 1 -122 29.5t-38 109.5v202q0 52 -17.5 75.5t-67.5 38.5z" />
<glyph unicode="|" horiz-adv-x="204" d="M135 -12h-66v762h66v-762z" />
<glyph unicode="}" horiz-adv-x="235" d="M-15 710q84 -1 122 -29.5t38 -110.5v-202q0 -51 17.5 -74.5t67.5 -38.5q-50 -16 -67.5 -39t-17.5 -75v-203q0 -83 -37.5 -110t-122.5 -28q53 12 72 43.5t19 89.5v193q0 62 16 88t73 41q-57 14 -73 40t-16 88v193q0 59 -19 91.5t-72 42.5z" />
<glyph unicode="~" horiz-adv-x="503" d="M154 314q40 0 98 -29q58 -30 86 -30q34 0 73 59l47 -30q-63 -87 -116 -87q-41 0 -97 30q-58 29 -86 29q-34 0 -73 -59l-47 30q61 87 115 87z" />
<glyph unicode="&#xa1;" horiz-adv-x="240" d="M115 369q-21 0 -35.5 15t-14.5 36t14.5 35.5t35.5 14.5t36 -14.5t15 -35.5t-15 -36t-36 -15zM115 -250q-19 0 -34.5 14t-15.5 33v4l50 509l51 -509v-4q0 -18 -16 -32.5t-35 -14.5z" />
<glyph unicode="&#xa2;" horiz-adv-x="404" d="M253 414q-20 10 -32 10q-37 0 -64 -33t-38 -72t-11 -75q0 -101 34 -161q47 128 111 331zM264 449q23 78 42 151h67l-57 -158q63 -18 63 -49q0 -12 -9.5 -21t-20.5 -9q-17 0 -53 24q-85 -244 -116 -348q31 -24 76 -24q58 0 106 59l21 -18q-53 -66 -146 -66q-32 0 -68 13 q-5 -17 -15.5 -48t-18.5 -56.5t-14 -48.5h-68q5 13 30.5 78.5t38.5 100.5q-44 32 -67 83t-23 108q0 95 58.5 162.5t149.5 67.5q16 0 24 -1z" />
<glyph unicode="&#xa3;" horiz-adv-x="464" d="M99 98q-47 0 -47 -39q0 -38 38 -38q20 0 39.5 19.5t19.5 38.5q0 9 -19 14t-31 5zM222 440h111l-10 -50h-101q5 -32 5 -78q0 -126 -25 -196q14 -6 45 -24t58 -31t44 -13q31 0 56 13.5t56 40.5q-17 -39 -54 -74.5t-73 -35.5q-66 0 -151 64q-49 -64 -92 -64q-31 0 -49 17 t-18 47q0 37 25.5 58.5t62.5 21.5q20 0 43 -5q3 27 3 54q0 105 -21 205h-84l10 50h69q2 52 29.5 114t77.5 109t104 47q16 0 34 -1.5t43 -6t41 -16t16 -27.5q0 -13 -9.5 -24.5t-21.5 -11.5q-16 0 -56 30.5t-63 30.5q-51 0 -82 -55.5t-31 -110.5q0 -12 4 -35.5t4 -35.5v-7z " />
<glyph unicode="&#xa4;" horiz-adv-x="536" d="M270 408q-53 0 -90.5 -37.5t-37.5 -90.5t37 -90.5t89 -37.5t88 38t36 91q0 51 -35.5 89t-86.5 38zM37 91l82 82q-35 50 -35 107q0 59 35 107l-82 83l41 41l82 -81q52 33 108 33q58 0 106 -33l83 81l41 -41l-81 -83q33 -49 33 -106q0 -55 -33 -108l81 -82l-41 -42l-83 83 q-49 -35 -106 -35q-56 0 -108 35l-82 -83z" />
<glyph unicode="&#xa5;" horiz-adv-x="570" d="M37 700h175q5 -5 5 -12q0 -8 -5 -13h-31q-25 -2 -25 -11q0 -5 6 -14l149 -266l126 266q3 8 3 12q0 13 -28 13h-39q-5 5 -5 13q0 7 5 12h175q7 -7 7 -12q0 -6 -7 -13h-34q-19 -2 -30 -25l-152 -318v-32h82v-50h-82v-65h82v-50h-82v-85q0 -20 24 -25h26q5 -5 5 -13 q0 -7 -5 -12h-175q-5 7 -5 12q0 8 5 13h24q26 1 26 25v85h-89v50h89v65h-89v50h89v32l-170 318q-7 14 -16.5 19t-33.5 6q-4 8 -4 13q0 2 4 12z" />
<glyph unicode="&#xa6;" horiz-adv-x="204" d="M135 440h-66v310h66v-310zM135 -10h-66v310h66v-310z" />
<glyph unicode="&#xa7;" horiz-adv-x="397" d="M84 331q0 -59 68 -118.5t102 -59.5q27 0 45.5 21t18.5 48q0 45 -63 112.5t-108 67.5q-29 0 -46 -20.5t-17 -50.5zM34 300q0 54 30.5 89.5t81.5 35.5q12 0 19 -1q-31 29 -47.5 46.5t-31 47.5t-14.5 63q0 61 39 95t102 34q134 0 134 -51q0 -13 -9.5 -25t-22.5 -12 q-16 0 -57 31t-61 31q-31 0 -52.5 -27t-21.5 -59q0 -24 25 -52.5t60.5 -58t71.5 -62.5t61 -77t25 -91q0 -58 -33 -92t-91 -34q53 -53 67 -77q20 -33 20 -71q0 -59 -48 -96t-109 -37q-16 0 -34 1.5t-43 6t-41 16t-16 27.5q0 13 9.5 25t22.5 12q16 0 56.5 -31t61.5 -31 q32 0 60.5 23t28.5 54q0 30 -25 60.5t-60.5 59.5t-71.5 60.5t-61 75t-25 91.5z" />
<glyph unicode="&#xa8;" horiz-adv-x="397" d="M281 626q21 0 36 -15t15 -36t-15 -35.5t-36 -14.5t-35.5 14.5t-14.5 35.5t14.5 36t35.5 15zM113 626q21 0 36 -15t15 -36t-15 -35.5t-36 -14.5t-35.5 14.5t-14.5 35.5t14.5 36t35.5 15z" />
<glyph unicode="&#xa9;" horiz-adv-x="549" d="M274 638q23 0 57 -12.5t34 -31.5q0 -11 -11 -11q-8 0 -18 11t-27.5 22t-44.5 11q-40 0 -65.5 -43t-25.5 -85q0 -62 29 -112.5t86 -50.5q16 0 28.5 9t18 19.5t12.5 19.5t14 9q5 0 9.5 -4t4.5 -9q0 -23 -37.5 -38.5t-63.5 -15.5q-62 0 -101 46.5t-39 110.5q0 63 39 109 t101 46zM273 688q-84 0 -143 -59.5t-59 -143.5q0 -83 59.5 -142.5t142.5 -59.5q84 0 143.5 59t59.5 143t-59.5 143.5t-143.5 59.5zM273 710q93 0 159 -66t66 -159t-66 -159t-159 -66t-159 66t-66 159q0 94 65.5 159.5t159.5 65.5z" />
<glyph unicode="&#xaa;" horiz-adv-x="357" d="M221 564q-42 -1 -79.5 -22t-37.5 -60q0 -22 16.5 -36.5t38.5 -14.5q20 0 37.5 12t24.5 30v91zM306 441q0 -15 -12 -24q-12 -10 -30 -10q-16 0 -29.5 9.5t-13.5 24.5v1q-24 -35 -73 -35q-41 0 -72.5 19t-31.5 57q0 33 34 56.5t72.5 32.5t70.5 9v28q0 31 -13 52.5t-41 21.5 q-23 0 -41 -13.5t-30.5 -26.5t-21.5 -13q-8 0 -14 5.5t-6 13.5q0 25 37 43t65 18q123 0 123 -88v-160q0 -30 11 -30q7 0 16 9z" />
<glyph unicode="&#xab;" horiz-adv-x="459" d="M206 222q46 27 109 85.5t103 108.5q10 0 10 -10l-129 -182l118 -172l-10 -13q-36 47 -92 97.5t-109 85.5zM14 222q88 56 212 194q10 0 10 -10l-129 -182l118 -172l-10 -13q-113 117 -201 183z" />
<glyph unicode="&#xac;" horiz-adv-x="540" d="M471 118h-50v232h-400v50h450v-282z" />
<glyph unicode="&#xad;" horiz-adv-x="438" d="M69 248h300v-57h-300v57z" />
<glyph unicode="&#xae;" horiz-adv-x="549" d="M220 488v-136q0 -3 0.5 -5t2 -3.5t2.5 -2t4 -1t4 -0.5h4.5h4.5l2 -6l-2 -4h-76l-2 4l2 6q19 0 21 6q1 2 1 6v261q0 10 -22 10l-2 6l2 5q20 0 61 2t61 2q32 0 55.5 -25.5t23.5 -57.5q0 -80 -93 -80l101 -135h12l2 -6l-2 -4h-77l-2 4l2 6q19 0 21 6q1 2 1 6l-95 129 q-10 2 -17 7zM220 613v-112q21 -9 52 -9q29 0 45 17t16 46q0 72 -64 72q-7 0 -19 -2t-19 -2q-11 0 -11 -10zM273 688q-84 0 -143 -59.5t-59 -143.5q0 -83 59.5 -142.5t142.5 -59.5q84 0 143.5 59t59.5 143t-59.5 143.5t-143.5 59.5zM273 710q93 0 159 -66t66 -159t-66 -159 t-159 -66t-159 66t-66 159q0 94 65.5 159.5t159.5 65.5z" />
<glyph unicode="&#xaf;" horiz-adv-x="400" d="M38 670h300v-50h-300v50z" />
<glyph unicode="&#xb0;" horiz-adv-x="361" d="M181 673q-34 0 -59 -25.5t-25 -59.5t24.5 -59t58.5 -25t59 25t25 59q0 33 -25 59t-58 26zM181 710q52 0 89 -35t37 -87t-37.5 -86.5t-90.5 -34.5q-51 0 -88 35.5t-37 85.5q0 52 37.5 87t89.5 35z" />
<glyph unicode="&#xb1;" horiz-adv-x="576" d="M69 358h190v192h58v-192h190v-57h-190v-191h-58v191h-190v57zM69 57h438v-57h-438v57z" />
<glyph unicode="&#xb2;" horiz-adv-x="378" d="M120 342q69 0 110.5 10.5t52.5 23t19.5 23t19.5 10.5q15 0 22 -15l-39 -77h-271q1 39 24 74.5t54.5 61.5t63 50t53.5 52t22 56q0 36 -21.5 57t-57.5 21q-33 0 -50 -15.5t-19 -34.5t-9 -34.5t-22 -15.5q-11 0 -20.5 7.5t-9.5 18.5q0 49 44.5 73.5t97.5 24.5q52 0 89 -27 t37 -77q0 -35 -22 -66t-53 -54t-62 -44.5t-53 -47.5t-22 -53v-2h22z" />
<glyph unicode="&#xb3;" horiz-adv-x="335" d="M107 510q48 2 81 28.5t33 73.5q0 32 -21 55t-53 23q-30 0 -43.5 -15.5t-14.5 -34.5t-7 -34.5t-23 -15.5q-12 0 -20.5 7.5t-8.5 19.5q0 49 38 73t90 24q47 0 78.5 -29t31.5 -75q0 -26 -14.5 -55t-36.5 -42q67 -29 67 -108q0 -66 -43 -113t-108 -47q-30 0 -69.5 15.5 t-39.5 41.5q0 10 9 18t18 8q12 0 21.5 -9t15.5 -20t20.5 -20t36.5 -9q39 0 56.5 35.5t17.5 79.5q0 38 -18.5 66.5t-53.5 28.5q-23 0 -43 -14z" />
<glyph unicode="&#xb4;" horiz-adv-x="227" d="M175 673q21 0 35.5 -15t14.5 -36l-155 -124l-18 18z" />
<glyph unicode="&#xb5;" horiz-adv-x="490" d="M32 400q24 0 67 25t68 25q-10 -23 -10 -50v-260q0 -100 56 -100q48 0 133 85v225l-50 50q25 0 67.5 25t67.5 25q-10 -23 -10 -50v-350q0 -26 27 -26q3 0 11 0.5t12 0.5q5 -5 5 -13q0 -7 -5 -12l-125 -10v125q-24 -35 -40.5 -56.5t-48.5 -45t-62 -23.5q-36 0 -75 28v-36 q0 -18 14.5 -71t14.5 -84q0 -77 -46 -77t-46 70q0 32 12.5 93.5t12.5 93.5v343z" />
<glyph unicode="&#xb6;" horiz-adv-x="499" d="M220 644h-13q-52 0 -88.5 -46.5t-36.5 -101.5q0 -62 41.5 -114.5t101.5 -59.5zM219 700q21 0 48 -5q38 -5 47 -5q56 0 119 20q-4 -136 -4 -409q0 -274 4 -411h-70q6 225 6 451q0 171 -4 307h-77q-4 -163 -4 -366q0 -228 5 -392h-70q7 117 7 301v94q-83 0 -142.5 62.5 t-59.5 146.5q0 81 57.5 143.5t137.5 62.5z" />
<glyph unicode="&#xb7;" horiz-adv-x="230" d="M112 306q24 0 41 -17t17 -41q0 -25 -16.5 -41t-41.5 -16q-24 0 -41 16.5t-17 40.5t17 41t41 17z" />
<glyph unicode="&#xb8;" horiz-adv-x="249" d="M47 -104l43 114h40l-32 -80q22 5 41 5q26 0 43.5 -29t17.5 -57q0 -42 -31.5 -70.5t-73.5 -28.5q-25 0 -46.5 18.5t-29.5 42.5q31 -26 61 -26q23 0 39 18t16 41q0 18 -6.5 29t-19.5 15.5t-25 6t-29 1.5h-8z" />
<glyph unicode="&#xb9;" horiz-adv-x="207" d="M136 710q-5 -20 -5 -37v-323q0 -14 12 -14q2 0 6.5 0.5t7.5 0.5q7 -5 7 -12q0 -6 -7 -11h-109q-2 3 -6 11q2 8 6 12q3 0 8 -0.5t7 -0.5q12 0 12 14v277l-35 36q8 4 28 17.5t36.5 21.5t31.5 8z" />
<glyph unicode="&#xba;" horiz-adv-x="389" d="M184 683q-34 0 -52 -35.5t-18 -73.5q0 -142 93 -142q35 0 52 35t17 74q0 142 -92 142zM194 710q61 0 100.5 -45t39.5 -107t-39.5 -106.5t-100.5 -44.5t-100.5 44.5t-39.5 106.5t39.5 107t100.5 45z" />
<glyph unicode="&#xbb;" horiz-adv-x="458" d="M252 222q-53 -35 -109 -85.5t-92 -97.5l-10 13l118 172l-129 182q0 10 10 10q40 -50 103 -108.5t109 -85.5zM444 222q-88 -66 -201 -183l-10 13l118 172l-129 182q0 10 10 10q124 -138 212 -194z" />
<glyph unicode="&#xbc;" horiz-adv-x="593" d="M409 710q-169 -465 -239 -720h-68q154 389 240 720h67zM467 465l39 -22q-3 -6 -25.5 -52t-43 -88t-38 -82t-17.5 -48q0 -12 18 -12h46v89l63 51q-5 -30 -5 -36v-104q32 0 67 15v-61q-10 2 -21 3.5t-24.5 3t-21.5 2.5v-92q0 -13 14 -13q2 0 8 0.5t8 0.5q7 -5 7 -13 q0 -4 -7 -11h-118l-6 11q1 2 3 6.5t3 6.5q2 0 8 -0.5t8 -0.5q14 0 14 13v92h-139q-1 4 -1 11q0 8 161 330zM113 710q-5 -20 -5 -37v-323q0 -14 12 -14q2 0 6.5 0.5t7.5 0.5q7 -5 7 -12q0 -6 -7 -11h-109q-2 3 -6 11q2 8 6 12q3 0 8 -0.5t7 -0.5q12 0 12 14v277l-35 36 q8 4 28 17.5t36.5 21.5t31.5 8z" />
<glyph unicode="&#xbd;" horiz-adv-x="695" d="M456 25q69 0 110.5 10.5t52.5 23t19.5 23t19.5 10.5q15 0 22 -15l-39 -77h-271q1 39 24 74.5t54.5 61.5t63 50t53.5 52t22 56q0 36 -21.5 57t-57.5 21q-33 0 -50 -15.5t-19 -34.5t-9 -34.5t-22 -15.5q-11 0 -20.5 7.5t-9.5 18.5q0 49 44.5 73.5t97.5 24.5q52 0 89 -27 t37 -77q0 -35 -22 -66t-53 -54t-62 -44.5t-53 -47.5t-22 -53v-2h22zM409 710q-169 -465 -239 -720h-68q154 389 240 720h67zM113 710q-5 -20 -5 -37v-323q0 -14 12 -14q2 0 6.5 0.5t7.5 0.5q7 -5 7 -12q0 -6 -7 -11h-109q-2 3 -6 11q2 8 6 12q3 0 8 -0.5t7 -0.5q12 0 12 14 v277l-35 36q8 4 28 17.5t36.5 21.5t31.5 8z" />
<glyph unicode="&#xbe;" horiz-adv-x="675" d="M86 510q48 2 81 28.5t33 73.5q0 32 -21 55t-53 23q-30 0 -43.5 -15.5t-14.5 -34.5t-7 -34.5t-23 -15.5q-12 0 -20.5 7.5t-8.5 19.5q0 49 38 73t90 24q47 0 78.5 -29t31.5 -75q0 -26 -14.5 -55t-36.5 -42q67 -29 67 -108q0 -66 -43 -113t-108 -47q-30 0 -69.5 15.5 t-39.5 41.5q0 10 9 18t18 8q12 0 21.5 -9t15.5 -20t20.5 -20t36.5 -9q39 0 56.5 35.5t17.5 79.5q0 38 -18.5 66.5t-53.5 28.5q-23 0 -43 -14zM491 710q-169 -465 -239 -720h-68q154 389 240 720h67zM549 465l39 -22q-3 -6 -25.5 -52t-43 -88t-38 -82t-17.5 -48q0 -12 18 -12 h46v89l63 51q-5 -30 -5 -36v-104q32 0 67 15v-61q-10 2 -21 3.5t-24.5 3t-21.5 2.5v-92q0 -13 14 -13q2 0 8 0.5t8 0.5q7 -5 7 -13q0 -4 -7 -11h-118l-6 11q1 2 3 6.5t3 6.5q2 0 8 -0.5t8 -0.5q14 0 14 13v92h-139q-1 4 -1 11q0 8 161 330z" />
<glyph unicode="&#xbf;" horiz-adv-x="358" d="M201 369q-21 0 -36 15t-15 36t15 35.5t36 14.5t35.5 -14.5t14.5 -35.5t-14.5 -36t-35.5 -15zM340 -202q0 -26 -42 -37t-77 -11q-77 0 -125 58t-48 136q0 37 12.5 65t32 51t40.5 51t40 79t28 120q3 -16 11 -53.5t13 -67.5t5 -53q0 -14 -18.5 -35.5t-40.5 -42t-40.5 -57 t-18.5 -77.5q0 -50 25 -101t70 -51q19 0 55 26t52 26q10 0 18 -8t8 -18z" />
<glyph unicode="&#xc0;" horiz-adv-x="524" d="M187 370h122l-62 240zM292 700l176 -650q10 -25 30 -25h20q5 -5 5 -13q0 -5 -5 -12h-175q-5 5 -5 12q0 8 5 13h25q26 2 26 19q0 1 -0.5 3t-0.5 3l-74 280h-141l-72 -280q-1 -2 -1 -6q0 -19 34 -19h24q5 -5 5 -13q0 -5 -5 -12h-153q-5 5 -5 12q0 8 5 13h23q20 0 27 25 l169 650h63zM214 913l123 -157l-18 -18l-155 124q0 21 14.5 36t35.5 15z" />
<glyph unicode="&#xc1;" horiz-adv-x="524" d="M187 370h122l-62 240zM292 700l176 -650q10 -25 30 -25h20q5 -5 5 -13q0 -5 -5 -12h-175q-5 5 -5 12q0 8 5 13h25q26 2 26 19q0 1 -0.5 3t-0.5 3l-74 280h-141l-72 -280q-1 -2 -1 -6q0 -19 34 -19h24q5 -5 5 -13q0 -5 -5 -12h-153q-5 5 -5 12q0 8 5 13h23q20 0 27 25 l169 650h63zM307 913q21 0 35.5 -15t14.5 -36l-155 -124l-18 18z" />
<glyph unicode="&#xc2;" horiz-adv-x="524" d="M187 370h122l-62 240zM292 700l176 -650q10 -25 30 -25h20q5 -5 5 -13q0 -5 -5 -12h-175q-5 5 -5 12q0 8 5 13h25q26 2 26 19q0 1 -0.5 3t-0.5 3l-74 280h-141l-72 -280q-1 -2 -1 -6q0 -19 34 -19h24q5 -5 5 -13q0 -5 -5 -12h-153q-5 5 -5 12q0 8 5 13h23q20 0 27 25 l169 650h63zM255 915q2 0 14 3l13 -3l123 -157l-18 -18l-119 102l-118 -102l-18 18z" />
<glyph unicode="&#xc3;" horiz-adv-x="524" d="M187 370h122l-62 240zM292 700l176 -650q10 -25 30 -25h20q5 -5 5 -13q0 -5 -5 -12h-175q-5 5 -5 12q0 8 5 13h25q26 2 26 19q0 1 -0.5 3t-0.5 3l-74 280h-141l-72 -280q-1 -2 -1 -6q0 -19 34 -19h24q5 -5 5 -13q0 -5 -5 -12h-153q-5 5 -5 12q0 8 5 13h23q20 0 27 25 l169 650h63zM312 789q-28 0 -59 21t-44 21h-2q-32 0 -47 -43l-38 20l86 63q27 0 56 -21q34 -21 47 -21q20 0 31.5 5.5t15.5 11.5t11 22l39 -17z" />
<glyph unicode="&#xc4;" horiz-adv-x="524" d="M187 370h122l-62 240zM292 700l176 -650q10 -25 30 -25h20q5 -5 5 -13q0 -5 -5 -12h-175q-5 5 -5 12q0 8 5 13h25q26 2 26 19q0 1 -0.5 3t-0.5 3l-74 280h-141l-72 -280q-1 -2 -1 -6q0 -19 34 -19h24q5 -5 5 -13q0 -5 -5 -12h-153q-5 5 -5 12q0 8 5 13h23q20 0 27 25 l169 650h63zM348 876q21 0 36 -15t15 -36t-15 -35.5t-36 -14.5t-35.5 14.5t-14.5 35.5t14.5 36t35.5 15zM180 876q21 0 36 -15t15 -36t-15 -35.5t-36 -14.5t-35.5 14.5t-14.5 35.5t14.5 36t35.5 15z" />
<glyph unicode="&#xc5;" horiz-adv-x="524" d="M187 370h122l-62 240zM292 700l176 -650q10 -25 30 -25h20q5 -5 5 -13q0 -5 -5 -12h-175q-5 5 -5 12q0 8 5 13h25q26 2 26 19q0 1 -0.5 3t-0.5 3l-74 280h-141l-72 -280q-1 -2 -1 -6q0 -19 34 -19h24q5 -5 5 -13q0 -5 -5 -12h-153q-5 5 -5 12q0 8 5 13h23q20 0 27 25 l169 650h63zM269 899q31 0 53 -22t22 -53t-22 -53t-53 -22t-53 22t-22 53t22 53t53 22zM269 875q-21 0 -35.5 -15t-14.5 -36t14.5 -35.5t35.5 -14.5t36 14.5t15 35.5t-15 36t-36 15z" />
<glyph unicode="&#xc7;" horiz-adv-x="607" d="M595 115q0 -36 -68.5 -80.5t-168.5 -44.5l-24 -60q16 3 32 3q32 0 51 -25.5t19 -58.5q0 -42 -31.5 -70.5t-73.5 -28.5q-25 0 -46.5 18.5t-29.5 42.5q31 -26 61 -26q23 0 39 18t16 41q0 24 -14.5 36t-29 14t-40.5 2h-4l36 97q-127 20 -204.5 124t-77.5 235q0 145 91 251.5 t236 106.5q29 0 76 -11.5t90 -36t43 -53.5q0 -11 -8 -19t-19 -8q-15 0 -33.5 16t-36.5 35t-52.5 35t-76.5 16q-65 0 -115 -50t-73 -116t-23 -128q0 -50 8.5 -100.5t28.5 -100.5t49 -88t73.5 -62t98.5 -24q38 0 66.5 20.5t42 44.5t29.5 44.5t32 20.5q13 0 22 -8.5t9 -21.5z " />
<glyph unicode="&#xc8;" horiz-adv-x="522" d="M78 650q0 15 -8 20t-17.5 4t-18.5 2t-11 12q2 9 5 12h406l56 -114q-9 -18 -25 -18q-12 0 -20.5 11t-21 27t-34.5 31.5t-71.5 26.5t-121.5 11h-16q-14 0 -20.5 -5t-6.5 -20v-280h147q15 2 20 8.5t5 27.5v32q5 5 13 5q7 0 12 -5v-175q-7 -5 -12 -5q-8 0 -13 5v36 q-1 21 -5 26.5t-20 5.5h-147v-281q1 -17 8 -21t35 -4q76 0 130 11t78 26.5t38 31.5t23 27t20 11q16 0 25 -18l-56 -114h-426q-4 4 -5 12q2 13 28.5 14.5t26.5 23.5v600zM203 913l123 -157l-18 -18l-155 124q0 21 14.5 36t35.5 15z" />
<glyph unicode="&#xc9;" horiz-adv-x="522" d="M78 650q0 15 -8 20t-17.5 4t-18.5 2t-11 12q2 9 5 12h406l56 -114q-9 -18 -25 -18q-12 0 -20.5 11t-21 27t-34.5 31.5t-71.5 26.5t-121.5 11h-16q-14 0 -20.5 -5t-6.5 -20v-280h147q15 2 20 8.5t5 27.5v32q5 5 13 5q7 0 12 -5v-175q-7 -5 -12 -5q-8 0 -13 5v36 q-1 21 -5 26.5t-20 5.5h-147v-281q1 -17 8 -21t35 -4q76 0 130 11t78 26.5t38 31.5t23 27t20 11q16 0 25 -18l-56 -114h-426q-4 4 -5 12q2 13 28.5 14.5t26.5 23.5v600zM301 913q21 0 35.5 -15t14.5 -36l-155 -124l-18 18z" />
<glyph unicode="&#xca;" horiz-adv-x="522" d="M78 650q0 15 -8 20t-17.5 4t-18.5 2t-11 12q2 9 5 12h406l56 -114q-9 -18 -25 -18q-12 0 -20.5 11t-21 27t-34.5 31.5t-71.5 26.5t-121.5 11h-16q-14 0 -20.5 -5t-6.5 -20v-280h147q15 2 20 8.5t5 27.5v32q5 5 13 5q7 0 12 -5v-175q-7 -5 -12 -5q-8 0 -13 5v36 q-1 21 -5 26.5t-20 5.5h-147v-281q1 -17 8 -21t35 -4q76 0 130 11t78 26.5t38 31.5t23 27t20 11q16 0 25 -18l-56 -114h-426q-4 4 -5 12q2 13 28.5 14.5t26.5 23.5v600zM246 915q2 0 14 3l13 -3l123 -157l-18 -18l-119 102l-118 -102l-18 18z" />
<glyph unicode="&#xcb;" horiz-adv-x="522" d="M78 650q0 15 -8 20t-17.5 4t-18.5 2t-11 12q2 9 5 12h406l56 -114q-9 -18 -25 -18q-12 0 -20.5 11t-21 27t-34.5 31.5t-71.5 26.5t-121.5 11h-16q-14 0 -20.5 -5t-6.5 -20v-280h147q15 2 20 8.5t5 27.5v32q5 5 13 5q7 0 12 -5v-175q-7 -5 -12 -5q-8 0 -13 5v36 q-1 21 -5 26.5t-20 5.5h-147v-281q1 -17 8 -21t35 -4q76 0 130 11t78 26.5t38 31.5t23 27t20 11q16 0 25 -18l-56 -114h-426q-4 4 -5 12q2 13 28.5 14.5t26.5 23.5v600zM334 876q21 0 36 -15t15 -36t-15 -35.5t-36 -14.5t-35.5 14.5t-14.5 35.5t14.5 36t35.5 15zM166 876 q21 0 36 -15t15 -36t-15 -35.5t-36 -14.5t-35.5 14.5t-14.5 35.5t14.5 36t35.5 15z" />
<glyph unicode="&#xcc;" d="M78 50v601q0 11 -8 16.5t-17 6.5t-25 1q-5 5 -5 13q0 5 5 12h175q5 -5 5 -12q0 -8 -5 -13q-16 0 -25 -1t-17 -7t-8 -17v-600q0 -16 13 -20.5t37 -4.5q5 -5 5 -13q0 -7 -5 -12h-175q-5 7 -5 12q0 8 5 13q16 0 25 1t17 7t8 17zM73 913l123 -157l-18 -18l-155 124 q0 21 14.5 36t35.5 15z" />
<glyph unicode="&#xcd;" d="M78 50v601q0 11 -8 16.5t-17 6.5t-25 1q-5 5 -5 13q0 5 5 12h175q5 -5 5 -12q0 -8 -5 -13q-16 0 -25 -1t-17 -7t-8 -17v-600q0 -16 13 -20.5t37 -4.5q5 -5 5 -13q0 -7 -5 -12h-175q-5 7 -5 12q0 8 5 13q16 0 25 1t17 7t8 17zM149 913q21 0 35.5 -15t14.5 -36l-155 -124 l-18 18z" />
<glyph unicode="&#xce;" d="M78 50v601q0 11 -8 16.5t-17 6.5t-25 1q-5 5 -5 13q0 5 5 12h175q5 -5 5 -12q0 -8 -5 -13q-16 0 -25 -1t-17 -7t-8 -17v-600q0 -16 13 -20.5t37 -4.5q5 -5 5 -13q0 -7 -5 -12h-175q-5 7 -5 12q0 8 5 13q16 0 25 1t17 7t8 17zM102 915q2 0 14 3l13 -3l123 -157l-18 -18 l-119 102l-118 -102l-18 18z" />
<glyph unicode="&#xcf;" d="M78 50v601q0 11 -8 16.5t-17 6.5t-25 1q-5 5 -5 13q0 5 5 12h175q5 -5 5 -12q0 -8 -5 -13q-16 0 -25 -1t-17 -7t-8 -17v-600q0 -16 13 -20.5t37 -4.5q5 -5 5 -13q0 -7 -5 -12h-175q-5 7 -5 12q0 8 5 13q16 0 25 1t17 7t8 17zM199 876q21 0 36 -15t15 -36t-15 -35.5 t-36 -14.5t-35.5 14.5t-14.5 35.5t14.5 36t35.5 15zM31 876q21 0 36 -15t15 -36t-15 -35.5t-36 -14.5t-35.5 14.5t-14.5 35.5t14.5 36t35.5 15z" />
<glyph unicode="&#xd0;" horiz-adv-x="673" d="M165 400h120v-50h-120v-300q0 -15 6.5 -20t23.5 -5h136q64 0 112 49t69 112t21 124q0 68 -13 128.5t-40.5 116t-80 88.5t-123.5 33q-6 0 -21 0.5t-23 0.5q-4 0 -12 -0.5t-12 -0.5h-9q-34 0 -34 -23v-253zM40 700h124q18 0 62 0.5t67 0.5q148 0 241.5 -100.5t93.5 -248.5 q0 -143 -91 -247.5t-236 -104.5h-261q-4 7 -4 13v2q0 4 4 10h31q19 3 19 25v300h-55v50h55v250q0 25 -21 25h-29q-4 5 -4 12v3q0 6 4 10z" />
<glyph unicode="&#xd1;" horiz-adv-x="531" d="M90 650q0 14 -10 19.5t-22 4.5t-22.5 2t-12.5 12q1 8 5 12h125l257 -555v505q0 14 -10 19.5t-22 4.5t-22 2t-10 12q0 5 5 12h175q5 -5 5 -12q0 -15 -23 -15q-3 0 -9.5 0.5t-9.5 0.5q-29 0 -29 -21v-597q0 -39 13 -56h-64l-269 570v-520q0 -25 63 -25q5 -5 5 -13 q0 -7 -5 -12h-175q-5 7 -5 12q0 8 5 13q62 0 62 25v600zM326 789q-28 0 -59 21t-44 21h-2q-32 0 -47 -43l-38 20l86 63q27 0 56 -21q34 -21 47 -21q20 0 31.5 5.5t15.5 11.5t11 22l39 -17z" />
<glyph unicode="&#xd2;" horiz-adv-x="729" d="M339 684q-47 0 -87 -30t-64.5 -76t-38 -95.5t-13.5 -92.5q0 -64 14.5 -127t43.5 -120t81 -92.5t119 -35.5q48 0 88 30t64 76t37 95.5t13 93.5q0 69 -12.5 131t-40.5 118.5t-80.5 90.5t-123.5 34zM364 710q143 0 235 -106.5t92 -251.5t-91.5 -253.5t-235.5 -108.5 q-95 0 -171 52t-116 134.5t-40 175.5q0 145 91 251.5t236 106.5zM316 913l123 -157l-18 -18l-155 124q0 21 14.5 36t35.5 15z" />
<glyph unicode="&#xd3;" horiz-adv-x="729" d="M339 684q-47 0 -87 -30t-64.5 -76t-38 -95.5t-13.5 -92.5q0 -64 14.5 -127t43.5 -120t81 -92.5t119 -35.5q48 0 88 30t64 76t37 95.5t13 93.5q0 69 -12.5 131t-40.5 118.5t-80.5 90.5t-123.5 34zM364 710q143 0 235 -106.5t92 -251.5t-91.5 -253.5t-235.5 -108.5 q-95 0 -171 52t-116 134.5t-40 175.5q0 145 91 251.5t236 106.5zM416 913q21 0 35.5 -15t14.5 -36l-155 -124l-18 18z" />
<glyph unicode="&#xd4;" horiz-adv-x="729" d="M339 684q-47 0 -87 -30t-64.5 -76t-38 -95.5t-13.5 -92.5q0 -64 14.5 -127t43.5 -120t81 -92.5t119 -35.5q48 0 88 30t64 76t37 95.5t13 93.5q0 69 -12.5 131t-40.5 118.5t-80.5 90.5t-123.5 34zM364 710q143 0 235 -106.5t92 -251.5t-91.5 -253.5t-235.5 -108.5 q-95 0 -171 52t-116 134.5t-40 175.5q0 145 91 251.5t236 106.5zM349 915q2 0 14 3l13 -3l123 -157l-18 -18l-119 102l-118 -102l-18 18z" />
<glyph unicode="&#xd5;" horiz-adv-x="729" d="M339 684q-47 0 -87 -30t-64.5 -76t-38 -95.5t-13.5 -92.5q0 -64 14.5 -127t43.5 -120t81 -92.5t119 -35.5q48 0 88 30t64 76t37 95.5t13 93.5q0 69 -12.5 131t-40.5 118.5t-80.5 90.5t-123.5 34zM364 710q143 0 235 -106.5t92 -251.5t-91.5 -253.5t-235.5 -108.5 q-95 0 -171 52t-116 134.5t-40 175.5q0 145 91 251.5t236 106.5zM418 789q-28 0 -59 21t-44 21h-2q-32 0 -47 -43l-38 20l86 63q27 0 56 -21q34 -21 47 -21q20 0 31.5 5.5t15.5 11.5t11 22l39 -17z" />
<glyph unicode="&#xd6;" horiz-adv-x="729" d="M339 684q-47 0 -87 -30t-64.5 -76t-38 -95.5t-13.5 -92.5q0 -64 14.5 -127t43.5 -120t81 -92.5t119 -35.5q48 0 88 30t64 76t37 95.5t13 93.5q0 69 -12.5 131t-40.5 118.5t-80.5 90.5t-123.5 34zM364 710q143 0 235 -106.5t92 -251.5t-91.5 -253.5t-235.5 -108.5 q-95 0 -171 52t-116 134.5t-40 175.5q0 145 91 251.5t236 106.5zM445 876q21 0 36 -15t15 -36t-15 -35.5t-36 -14.5t-35.5 14.5t-14.5 35.5t14.5 36t35.5 15zM277 876q21 0 36 -15t15 -36t-15 -35.5t-36 -14.5t-35.5 14.5t-14.5 35.5t14.5 36t35.5 15z" />
<glyph unicode="&#xd7;" horiz-adv-x="490" d="M203 220l-170 170l41 42l171 -171l171 171l42 -42l-171 -170l171 -172l-42 -42l-171 172l-171 -172l-41 42z" />
<glyph unicode="&#xd8;" horiz-adv-x="729" d="M228 92q21 45 79.5 168t97.5 210t71 171q-61 43 -129 43q-65 0 -115 -50t-73 -116t-23 -128q0 -82 23 -161.5t69 -136.5zM517 602q-30 -69 -118 -255.5t-131 -290.5q54 -41 126 -41q48 0 88 30t64 76t37 95.5t13 93.5q0 191 -79 292zM364 710q67 0 127 -27q14 44 20 67 h67q-7 -19 -38 -95q72 -51 111.5 -132.5t39.5 -170.5q0 -145 -91.5 -253.5t-235.5 -108.5q-59 0 -114 23q-22 -54 -39 -113h-68q14 36 59 137q-78 50 -121.5 135.5t-43.5 179.5q0 145 91 251.5t236 106.5z" />
<glyph unicode="&#xd9;" horiz-adv-x="609" d="M13 700h175q5 -5 5 -12q0 -8 -5 -13h-26q-8 -1 -12.5 -2.5t-8 -7t-3.5 -15.5v-441q0 -81 53.5 -137.5t134.5 -56.5q73 0 109 49.5t36 125.5v455q0 30 -27 30h-23q-6 7 -6 11q-1 5 6 14h175q5 -5 5 -12q0 -8 -5 -13h-26q-24 -4 -24 -30v-439q0 -98 -74.5 -157t-175.5 -59 q-93 0 -163 56.5t-70 147.5v456q0 25 -27 25h-23q-5 5 -5 13q0 9 5 12zM264 913l123 -157l-18 -18l-155 124q0 21 14.5 36t35.5 15z" />
<glyph unicode="&#xda;" horiz-adv-x="609" d="M13 700h175q5 -5 5 -12q0 -8 -5 -13h-26q-8 -1 -12.5 -2.5t-8 -7t-3.5 -15.5v-441q0 -81 53.5 -137.5t134.5 -56.5q73 0 109 49.5t36 125.5v455q0 30 -27 30h-23q-6 7 -6 11q-1 5 6 14h175q5 -5 5 -12q0 -8 -5 -13h-26q-24 -4 -24 -30v-439q0 -98 -74.5 -157t-175.5 -59 q-93 0 -163 56.5t-70 147.5v456q0 25 -27 25h-23q-5 5 -5 13q0 9 5 12zM356 913q21 0 35.5 -15t14.5 -36l-155 -124l-18 18z" />
<glyph unicode="&#xdb;" horiz-adv-x="609" d="M13 700h175q5 -5 5 -12q0 -8 -5 -13h-26q-8 -1 -12.5 -2.5t-8 -7t-3.5 -15.5v-441q0 -81 53.5 -137.5t134.5 -56.5q73 0 109 49.5t36 125.5v455q0 30 -27 30h-23q-6 7 -6 11q-1 5 6 14h175q5 -5 5 -12q0 -8 -5 -13h-26q-24 -4 -24 -30v-439q0 -98 -74.5 -157t-175.5 -59 q-93 0 -163 56.5t-70 147.5v456q0 25 -27 25h-23q-5 5 -5 13q0 9 5 12zM299 915q2 0 14 3l13 -3l123 -157l-18 -18l-119 102l-118 -102l-18 18z" />
<glyph unicode="&#xdc;" horiz-adv-x="609" d="M13 700h175q5 -5 5 -12q0 -8 -5 -13h-26q-8 -1 -12.5 -2.5t-8 -7t-3.5 -15.5v-441q0 -81 53.5 -137.5t134.5 -56.5q73 0 109 49.5t36 125.5v455q0 30 -27 30h-23q-6 7 -6 11q-1 5 6 14h175q5 -5 5 -12q0 -8 -5 -13h-26q-24 -4 -24 -30v-439q0 -98 -74.5 -157t-175.5 -59 q-93 0 -163 56.5t-70 147.5v456q0 25 -27 25h-23q-5 5 -5 13q0 9 5 12zM391 876q21 0 36 -15t15 -36t-15 -35.5t-36 -14.5t-35.5 14.5t-14.5 35.5t14.5 36t35.5 15zM223 876q21 0 36 -15t15 -36t-15 -35.5t-36 -14.5t-35.5 14.5t-14.5 35.5t14.5 36t35.5 15z" />
<glyph unicode="&#xdd;" horiz-adv-x="580" d="M38 700h175q5 -5 5 -12q0 -8 -5 -13h-13q-35 0 -37 -25l149 -272l126 272v5q0 12 -5.5 16t-21.5 4h-37q-5 5 -5 13q0 7 5 12h175l5 -12q-2 -6 -5 -13h-35q-18 -3 -29 -25l-152 -318v-282q0 -16 13 -20.5t37 -4.5q5 -5 5 -13q0 -7 -5 -12h-175q-5 7 -5 12q0 8 5 13 q16 0 25 1t17 7t8 17v282l-170 318q-13 25 -50 25q-5 6 -5 13t5 12zM343 913q21 0 35.5 -15t14.5 -36l-155 -124l-18 18z" />
<glyph unicode="&#xde;" horiz-adv-x="513" d="M153 504v-247q21 -40 58 -65.5t80 -25.5q30 0 53 18t35.5 46t18.5 57t6 56q0 231 -148 231q-25 0 -56 -22.5t-47 -47.5zM28 700h175q5 -5 5 -12q0 -8 -5 -13h-29q-21 -2 -21 -25v-88q63 38 119 38q91 0 148 -68.5t57 -161.5q0 -92 -57.5 -161t-147.5 -69q-50 0 -119 42 v-132q0 -22 17 -25h33q5 -5 5 -13q0 -7 -5 -12h-175q-5 5 -5 10q0 7 5 15h31q19 3 19 25v600q0 25 -22 25h-28q-5 8 -5 14q0 4 5 11z" />
<glyph unicode="&#xdf;" horiz-adv-x="595" d="M260 325q0 41 19 66t46 36.5t53.5 25t45.5 43t19 77.5q0 43 -50 85t-108 42q-62 0 -99 -43t-37 -107v-500q0 -28 -8 -51t-27.5 -44t-33 -32.5t-42.5 -32.5q23 34 29.5 66.5t6.5 93.5v375h-54l54 35q1 54 32.5 121.5t86 118t110.5 50.5q83 0 130 -42t47 -127 q0 -45 -23.5 -81t-52 -55.5t-52 -44.5t-23.5 -50q0 -31 25.5 -51.5t62 -32.5t73.5 -26t62.5 -42.5t25.5 -71.5q0 -136 -193 -136q-143 0 -143 55q0 14 9 24.5t23 10.5q18 0 61.5 -32.5t64.5 -32.5q45 0 78.5 21t33.5 64q0 29 -26 49.5t-63 34t-74 29t-63 43.5t-26 69z" />
<glyph unicode="&#xe0;" horiz-adv-x="446" d="M301 85v150l-147 -57q-39 -16 -39 -77q0 -39 24 -62.5t62 -23.5q28 0 64 22t36 48zM185 -10q-61 0 -105.5 24t-44.5 79q0 65 67 91l199 76v40q0 52 -20.5 88t-67.5 36q-26 0 -46.5 -14t-30.5 -30t-22 -30t-23 -14q-12 0 -20.5 9t-8.5 20q0 35 48.5 60t86.5 25 q179 0 179 -130v-249q0 -55 24 -55q11 0 21 14q-1 -21 -19 -30.5t-41 -9.5t-41.5 15.5t-18.5 38.5v2q-39 -56 -116 -56zM165 673l123 -157l-18 -18l-155 124q0 21 14.5 36t35.5 15z" />
<glyph unicode="&#xe1;" horiz-adv-x="446" d="M301 85v150l-147 -57q-39 -16 -39 -77q0 -39 24 -62.5t62 -23.5q28 0 64 22t36 48zM185 -10q-61 0 -105.5 24t-44.5 79q0 65 67 91l199 76v40q0 52 -20.5 88t-67.5 36q-26 0 -46.5 -14t-30.5 -30t-22 -30t-23 -14q-12 0 -20.5 9t-8.5 20q0 35 48.5 60t86.5 25 q179 0 179 -130v-249q0 -55 24 -55q11 0 21 14q-1 -21 -19 -30.5t-41 -9.5t-41.5 15.5t-18.5 38.5v2q-39 -56 -116 -56zM256 673q21 0 35.5 -15t14.5 -36l-155 -124l-18 18z" />
<glyph unicode="&#xe2;" horiz-adv-x="446" d="M301 85v150l-147 -57q-39 -16 -39 -77q0 -39 24 -62.5t62 -23.5q28 0 64 22t36 48zM185 -10q-61 0 -105.5 24t-44.5 79q0 65 67 91l199 76v40q0 52 -20.5 88t-67.5 36q-26 0 -46.5 -14t-30.5 -30t-22 -30t-23 -14q-12 0 -20.5 9t-8.5 20q0 35 48.5 60t86.5 25 q179 0 179 -130v-249q0 -55 24 -55q11 0 21 14q-1 -21 -19 -30.5t-41 -9.5t-41.5 15.5t-18.5 38.5v2q-39 -56 -116 -56zM200 675q2 0 14 3l13 -3l123 -157l-18 -18l-119 102l-118 -102l-18 18z" />
<glyph unicode="&#xe3;" horiz-adv-x="446" d="M301 85v150l-147 -57q-39 -16 -39 -77q0 -39 24 -62.5t62 -23.5q28 0 64 22t36 48zM185 -10q-61 0 -105.5 24t-44.5 79q0 65 67 91l199 76v40q0 52 -20.5 88t-67.5 36q-26 0 -46.5 -14t-30.5 -30t-22 -30t-23 -14q-12 0 -20.5 9t-8.5 20q0 35 48.5 60t86.5 25 q179 0 179 -130v-249q0 -55 24 -55q11 0 21 14q-1 -21 -19 -30.5t-41 -9.5t-41.5 15.5t-18.5 38.5v2q-39 -56 -116 -56zM259 549q-25 0 -59 21q-29 21 -44 21h-2q-32 0 -47 -43l-38 20l86 63q27 0 56 -21q34 -21 47 -21q20 0 31.5 5.5t15.5 11.5t11 22l39 -17z" />
<glyph unicode="&#xe4;" horiz-adv-x="446" d="M301 85v150l-147 -57q-39 -16 -39 -77q0 -39 24 -62.5t62 -23.5q28 0 64 22t36 48zM185 -10q-61 0 -105.5 24t-44.5 79q0 65 67 91l199 76v40q0 52 -20.5 88t-67.5 36q-26 0 -46.5 -14t-30.5 -30t-22 -30t-23 -14q-12 0 -20.5 9t-8.5 20q0 35 48.5 60t86.5 25 q179 0 179 -130v-249q0 -55 24 -55q11 0 21 14q-1 -21 -19 -30.5t-41 -9.5t-41.5 15.5t-18.5 38.5v2q-39 -56 -116 -56zM300 626q21 0 36 -15t15 -36t-15 -35.5t-36 -14.5t-35.5 14.5t-14.5 35.5t14.5 36t35.5 15zM132 626q21 0 36 -15t15 -36t-15 -35.5t-36 -14.5 t-35.5 14.5t-14.5 35.5t14.5 36t35.5 15z" />
<glyph unicode="&#xe5;" horiz-adv-x="446" d="M301 85v150l-147 -57q-39 -16 -39 -77q0 -39 24 -62.5t62 -23.5q28 0 64 22t36 48zM185 -10q-61 0 -105.5 24t-44.5 79q0 65 67 91l199 76v40q0 52 -20.5 88t-67.5 36q-26 0 -46.5 -14t-30.5 -30t-22 -30t-23 -14q-12 0 -20.5 9t-8.5 20q0 35 48.5 60t86.5 25 q179 0 179 -130v-249q0 -55 24 -55q11 0 21 14q-1 -21 -19 -30.5t-41 -9.5t-41.5 15.5t-18.5 38.5v2q-39 -56 -116 -56zM208 659q31 0 53 -22t22 -53t-22 -53t-53 -22t-53 22t-22 53t22 53t53 22zM208 635q-21 0 -35.5 -15t-14.5 -36t14.5 -35.5t35.5 -14.5t36 14.5t15 35.5 t-15 36t-36 15z" />
<glyph unicode="&#xe7;" horiz-adv-x="427" d="M404 68q0 -3 -4.5 -11t-16.5 -20t-28.5 -22t-44 -17.5t-60.5 -7.5l-23 -60q17 3 33 3q31 0 50 -26t19 -58q0 -42 -31.5 -70.5t-73.5 -28.5q-25 0 -46.5 18.5t-29.5 42.5q31 -26 61 -26q23 0 39 18t16 41q0 24 -14.5 36t-29 14t-40.5 2h-4l37 98q-77 17 -123 81.5 t-46 144.5q0 93 58.5 161.5t151.5 68.5q23 0 51.5 -3.5t59.5 -17.5t31 -36q0 -12 -9.5 -21t-21.5 -9q-19 0 -62 30.5t-65 30.5q-29 0 -51 -19t-33.5 -48t-17.5 -58t-6 -55q0 -42 6 -78t20.5 -72.5t44.5 -57.5t72 -21q21 0 43.5 10.5t37 23t27 23t17.5 10.5q6 0 6 -14z" />
<glyph unicode="&#xe8;" horiz-adv-x="459" d="M238 424q-39 0 -65.5 -34t-35.5 -73.5t-9 -78.5l211 106q-7 29 -40 54.5t-61 25.5zM273 15q26 0 50 11t37.5 23.5t25 23.5t15.5 11q8 0 14 -5.5t6 -13.5q0 -10 -20 -27t-60.5 -32.5t-86.5 -15.5q-93 0 -151.5 68.5t-58.5 161.5t58.5 161.5t151.5 68.5q116 0 185 -92 l-311 -152q2 -75 39 -133t106 -58zM188 673l123 -157l-18 -18l-155 124q0 21 14.5 36t35.5 15z" />
<glyph unicode="&#xe9;" horiz-adv-x="459" d="M238 424q-39 0 -65.5 -34t-35.5 -73.5t-9 -78.5l211 106q-7 29 -40 54.5t-61 25.5zM273 15q26 0 50 11t37.5 23.5t25 23.5t15.5 11q8 0 14 -5.5t6 -13.5q0 -10 -20 -27t-60.5 -32.5t-86.5 -15.5q-93 0 -151.5 68.5t-58.5 161.5t58.5 161.5t151.5 68.5q116 0 185 -92 l-311 -152q2 -75 39 -133t106 -58zM282 673q21 0 35.5 -15t14.5 -36l-155 -124l-18 18z" />
<glyph unicode="&#xea;" horiz-adv-x="459" d="M238 424q-39 0 -65.5 -34t-35.5 -73.5t-9 -78.5l211 106q-7 29 -40 54.5t-61 25.5zM273 15q26 0 50 11t37.5 23.5t25 23.5t15.5 11q8 0 14 -5.5t6 -13.5q0 -10 -20 -27t-60.5 -32.5t-86.5 -15.5q-93 0 -151.5 68.5t-58.5 161.5t58.5 161.5t151.5 68.5q116 0 185 -92 l-311 -152q2 -75 39 -133t106 -58zM239 675q2 0 14 3l13 -3l123 -157l-18 -18l-119 102l-118 -102l-18 18z" />
<glyph unicode="&#xeb;" horiz-adv-x="459" d="M238 424q-39 0 -65.5 -34t-35.5 -73.5t-9 -78.5l211 106q-7 29 -40 54.5t-61 25.5zM273 15q26 0 50 11t37.5 23.5t25 23.5t15.5 11q8 0 14 -5.5t6 -13.5q0 -10 -20 -27t-60.5 -32.5t-86.5 -15.5q-93 0 -151.5 68.5t-58.5 161.5t58.5 161.5t151.5 68.5q116 0 185 -92 l-311 -152q2 -75 39 -133t106 -58zM335 626q21 0 36 -15t15 -36t-15 -35.5t-36 -14.5t-35.5 14.5t-14.5 35.5t14.5 36t35.5 15zM167 626q21 0 36 -15t15 -36t-15 -35.5t-36 -14.5t-35.5 14.5t-14.5 35.5t14.5 36t35.5 15z" />
<glyph unicode="&#xec;" horiz-adv-x="242" d="M172 450q-10 -27 -10 -50v-350q0 -25 20 -25h30q5 -5 5 -13q0 -7 -5 -12h-175q-4 8 -4 11q0 9 4 14h29q21 2 21 25v300l-50 50q24 0 67 25t68 25zM88 673l123 -157l-18 -18l-155 124q0 21 14.5 36t35.5 15z" />
<glyph unicode="&#xed;" horiz-adv-x="242" d="M172 450q-10 -27 -10 -50v-350q0 -25 20 -25h30q5 -5 5 -13q0 -7 -5 -12h-175q-4 8 -4 11q0 9 4 14h29q21 2 21 25v300l-50 50q24 0 67 25t68 25zM175 673q21 0 35.5 -15t14.5 -36l-155 -124l-18 18z" />
<glyph unicode="&#xee;" horiz-adv-x="242" d="M172 450q-10 -27 -10 -50v-350q0 -25 20 -25h30q5 -5 5 -13q0 -7 -5 -12h-175q-4 8 -4 11q0 9 4 14h29q21 2 21 25v300l-50 50q24 0 67 25t68 25zM112 675q2 0 14 3l13 -3l123 -157l-18 -18l-119 102l-118 -102l-18 18z" />
<glyph unicode="&#xef;" horiz-adv-x="242" d="M172 450q-10 -27 -10 -50v-350q0 -25 20 -25h30q5 -5 5 -13q0 -7 -5 -12h-175q-4 8 -4 11q0 9 4 14h29q21 2 21 25v300l-50 50q24 0 67 25t68 25zM207 626q21 0 36 -15t15 -36t-15 -35.5t-36 -14.5t-35.5 14.5t-14.5 35.5t14.5 36t35.5 15zM39 626q21 0 36 -15t15 -36 t-15 -35.5t-36 -14.5t-35.5 14.5t-14.5 35.5t14.5 36t35.5 15z" />
<glyph unicode="&#xf0;" horiz-adv-x="513" d="M238 424q-29 0 -51.5 -18.5t-34 -47.5t-17 -58t-5.5 -56q0 -42 6 -78t20.5 -72.5t44 -57.5t72.5 -21q30 0 52.5 18t34 46.5t16.5 57t5 56.5q0 46 -5 81t-18.5 72t-44 57.5t-75.5 20.5zM254 450q43 0 90 -26q-6 14 -14 29t-20.5 35t-20 31.5t-25.5 38t-24 35.5l-114 -63 v56l83 46q-44 51 -83 80l50 38l79 -92l94 52v-56l-64 -36q40 -37 109.5 -171.5t69.5 -226.5q0 -93 -58.5 -161.5t-151.5 -68.5q-91 0 -150.5 69t-59.5 161t58.5 161t151.5 69z" />
<glyph unicode="&#xf1;" horiz-adv-x="504" d="M172 450q-10 -27 -10 -50v-75q19 29 29.5 42.5t32 37t43.5 34.5t46 11q51 0 82 -36.5t31 -88.5v-275q0 -25 20 -25h30q5 -5 5 -13q0 -7 -5 -12h-175q-5 9 -4 13q0 7 4 12h29q21 2 21 25v250q0 100 -56 100q-48 0 -133 -85v-265q0 -25 20 -25h30q5 -5 5 -13q0 -7 -5 -12 h-175q-4 8 -4 11q0 9 4 14h29q21 2 21 25v300l-50 50q24 0 67 25t68 25zM293 549q-25 0 -59 21q-29 21 -44 21h-2q-32 0 -47 -43l-38 20l86 63q27 0 56 -21q34 -21 47 -21q20 0 31.5 5.5t15.5 11.5t11 22l39 -17z" />
<glyph unicode="&#xf2;" horiz-adv-x="509" d="M238 424q-37 0 -62.5 -32.5t-35.5 -71.5t-10 -76q0 -42 6 -78t20.5 -72t44 -57t72.5 -21q38 0 63.5 31.5t35 69.5t9.5 76q0 46 -5 81t-18.5 72t-44 57.5t-75.5 20.5zM254 450q93 0 151.5 -68.5t58.5 -161.5t-58.5 -161.5t-151.5 -68.5t-151.5 68.5t-58.5 161.5 t58.5 161.5t151.5 68.5zM212 673l123 -157l-18 -18l-155 124q0 21 14.5 36t35.5 15z" />
<glyph unicode="&#xf3;" horiz-adv-x="509" d="M238 424q-37 0 -62.5 -32.5t-35.5 -71.5t-10 -76q0 -42 6 -78t20.5 -72t44 -57t72.5 -21q38 0 63.5 31.5t35 69.5t9.5 76q0 46 -5 81t-18.5 72t-44 57.5t-75.5 20.5zM254 450q93 0 151.5 -68.5t58.5 -161.5t-58.5 -161.5t-151.5 -68.5t-151.5 68.5t-58.5 161.5 t58.5 161.5t151.5 68.5zM288 673q21 0 35.5 -15t14.5 -36l-155 -124l-18 18z" />
<glyph unicode="&#xf4;" horiz-adv-x="509" d="M238 424q-37 0 -62.5 -32.5t-35.5 -71.5t-10 -76q0 -42 6 -78t20.5 -72t44 -57t72.5 -21q38 0 63.5 31.5t35 69.5t9.5 76q0 46 -5 81t-18.5 72t-44 57.5t-75.5 20.5zM254 450q93 0 151.5 -68.5t58.5 -161.5t-58.5 -161.5t-151.5 -68.5t-151.5 68.5t-58.5 161.5 t58.5 161.5t151.5 68.5zM242 675q2 0 14 3l13 -3l123 -157l-18 -18l-119 102l-118 -102l-18 18z" />
<glyph unicode="&#xf5;" horiz-adv-x="509" d="M238 424q-37 0 -62.5 -32.5t-35.5 -71.5t-10 -76q0 -42 6 -78t20.5 -72t44 -57t72.5 -21q38 0 63.5 31.5t35 69.5t9.5 76q0 46 -5 81t-18.5 72t-44 57.5t-75.5 20.5zM254 450q93 0 151.5 -68.5t58.5 -161.5t-58.5 -161.5t-151.5 -68.5t-151.5 68.5t-58.5 161.5 t58.5 161.5t151.5 68.5zM302 549q-28 0 -59 21t-44 21h-2q-32 0 -47 -43l-38 20l86 63q27 0 56 -21q34 -21 47 -21q20 0 31.5 5.5t15.5 11.5t11 22l39 -17z" />
<glyph unicode="&#xf6;" horiz-adv-x="509" d="M238 424q-37 0 -62.5 -32.5t-35.5 -71.5t-10 -76q0 -42 6 -78t20.5 -72t44 -57t72.5 -21q38 0 63.5 31.5t35 69.5t9.5 76q0 46 -5 81t-18.5 72t-44 57.5t-75.5 20.5zM254 450q93 0 151.5 -68.5t58.5 -161.5t-58.5 -161.5t-151.5 -68.5t-151.5 68.5t-58.5 161.5 t58.5 161.5t151.5 68.5zM339 626q21 0 36 -15t15 -36t-15 -35.5t-36 -14.5t-35.5 14.5t-14.5 35.5t14.5 36t35.5 15zM171 626q21 0 36 -15t15 -36t-15 -35.5t-36 -14.5t-35.5 14.5t-14.5 35.5t14.5 36t35.5 15z" />
<glyph unicode="&#xf7;" horiz-adv-x="480" d="M247 105q24 0 41 -17t17 -41q0 -25 -16.5 -41t-41.5 -16q-24 0 -41 16.5t-17 40.5t17 41t41 17zM247 450q24 0 41 -17t17 -41q0 -25 -16.5 -41t-41.5 -16q-24 0 -41 16.5t-17 40.5t17 41t41 17zM21 248h438v-57h-438v57z" />
<glyph unicode="&#xf8;" horiz-adv-x="509" d="M175 59q67 188 118 355q-27 10 -56 10q-38 0 -64 -33t-35 -71.5t-9 -75.5q0 -127 46 -185zM337 384q-54 -152 -119 -357q26 -12 54 -12q30 0 52.5 18t34 46.5t16.5 57t5 56.5q0 137 -43 191zM253 450q25 0 49 -6q32 111 41 146h67l-59 -166q52 -31 82 -86.5t30 -117.5 q0 -92 -58.5 -161t-151.5 -69q-23 0 -45 6q-13 -42 -37 -126h-68l56 146q-54 29 -85 85.5t-31 118.5q0 92 58.5 161t151.5 69z" />
<glyph unicode="&#xf9;" horiz-adv-x="499" d="M29 400q26 0 68 25t67 25q-10 -23 -10 -50v-260q0 -100 56 -100q48 0 133 85v225l-50 50q24 0 67 25t68 25q-10 -23 -10 -50v-350q0 -26 27 -26q3 0 11 0.5t12 0.5q5 -5 5 -13q0 -7 -5 -12l-125 -10v125q-19 -29 -29.5 -42.5t-32 -37t-43.5 -34.5t-46 -11q-51 0 -82 36.5 t-31 88.5v235zM203 673l123 -157l-18 -18l-155 124q0 21 14.5 36t35.5 15z" />
<glyph unicode="&#xfa;" horiz-adv-x="499" d="M29 400q26 0 68 25t67 25q-10 -23 -10 -50v-260q0 -100 56 -100q48 0 133 85v225l-50 50q24 0 67 25t68 25q-10 -23 -10 -50v-350q0 -26 27 -26q3 0 11 0.5t12 0.5q5 -5 5 -13q0 -7 -5 -12l-125 -10v125q-19 -29 -29.5 -42.5t-32 -37t-43.5 -34.5t-46 -11q-51 0 -82 36.5 t-31 88.5v235zM294 673q21 0 35.5 -15t14.5 -36l-155 -124l-18 18z" />
<glyph unicode="&#xfb;" horiz-adv-x="499" d="M29 400q26 0 68 25t67 25q-10 -23 -10 -50v-260q0 -100 56 -100q48 0 133 85v225l-50 50q24 0 67 25t68 25q-10 -23 -10 -50v-350q0 -26 27 -26q3 0 11 0.5t12 0.5q5 -5 5 -13q0 -7 -5 -12l-125 -10v125q-19 -29 -29.5 -42.5t-32 -37t-43.5 -34.5t-46 -11q-51 0 -82 36.5 t-31 88.5v235zM228 675q2 0 14 3l13 -3l123 -157l-18 -18l-119 102l-118 -102l-18 18z" />
<glyph unicode="&#xfc;" horiz-adv-x="499" d="M29 400q26 0 68 25t67 25q-10 -23 -10 -50v-260q0 -100 56 -100q48 0 133 85v225l-50 50q24 0 67 25t68 25q-10 -23 -10 -50v-350q0 -26 27 -26q3 0 11 0.5t12 0.5q5 -5 5 -13q0 -7 -5 -12l-125 -10v125q-19 -29 -29.5 -42.5t-32 -37t-43.5 -34.5t-46 -11q-51 0 -82 36.5 t-31 88.5v235zM330 626q21 0 36 -15t15 -36t-15 -35.5t-36 -14.5t-35.5 14.5t-14.5 35.5t14.5 36t35.5 15zM162 626q21 0 36 -15t15 -36t-15 -35.5t-36 -14.5t-35.5 14.5t-14.5 35.5t14.5 36t35.5 15z" />
<glyph unicode="&#xfd;" horiz-adv-x="529" d="M246 2l-207 413h-25q-2 2 -5 13q2 7 5 12h175q5 -5 5 -12q0 -8 -5 -13h-28q-23 -2 -23 -17q0 -5 1 -8l149 -302l131 294q3 9 3 15q0 18 -25 18h-32q-7 7 -7 13q0 5 7 12h150q5 -10 5 -12q0 -3 -5 -13q-24 0 -32.5 -5.5t-18.5 -27.5l-255 -562q-32 -70 -79 -70 q-11 0 -20.5 7.5t-9.5 18.5q0 10 49 61.5t60 76.5zM312 673q21 0 35.5 -15t14.5 -36l-155 -124l-18 18z" />
<glyph unicode="&#xfe;" horiz-adv-x="520" d="M144 375v-275q0 -40 30.5 -62.5t71.5 -22.5q143 0 143 229q0 57 -37.5 118.5t-89.5 61.5q-66 0 -118 -49zM154 750q-10 -23 -10 -50v-300q20 20 56 35t65 15q91 0 150.5 -69t59.5 -161q0 -93 -58.5 -161.5t-151.5 -68.5q-34 0 -69.5 14.5t-37.5 14.5q-14 0 -14 -15v-204 q0 -25 20 -25h30q5 -5 5 -13q0 -7 -5 -12h-175q-4 8 -4 11q0 9 4 14h29q21 2 21 25v850l-50 50h3q25 0 66.5 25t65.5 25z" />
<glyph unicode="&#xff;" horiz-adv-x="529" d="M246 2l-207 413h-25q-2 2 -5 13q2 7 5 12h175q5 -5 5 -12q0 -8 -5 -13h-28q-23 -2 -23 -17q0 -5 1 -8l149 -302l131 294q3 9 3 15q0 18 -25 18h-32q-7 7 -7 13q0 5 7 12h150q5 -10 5 -12q0 -3 -5 -13q-24 0 -32.5 -5.5t-18.5 -27.5l-255 -562q-32 -70 -79 -70 q-11 0 -20.5 7.5t-9.5 18.5q0 10 49 61.5t60 76.5zM361 626q21 0 36 -15t15 -36t-15 -35.5t-36 -14.5t-35.5 14.5t-14.5 35.5t14.5 36t35.5 15zM193 626q21 0 36 -15t15 -36t-15 -35.5t-36 -14.5t-35.5 14.5t-14.5 35.5t14.5 36t35.5 15z" />
<glyph unicode="&#x131;" horiz-adv-x="242" d="M172 450q-10 -27 -10 -50v-350q0 -25 20 -25h30q5 -5 5 -13q0 -7 -5 -12h-175q-4 8 -4 11q0 9 4 14h29q21 2 21 25v300l-50 50q24 0 67 25t68 25z" />
<glyph unicode="&#x141;" horiz-adv-x="526" d="M206 25q76 0 130 11t78 26.5t38 31.5t23 27t20 11q16 0 25 -18l-56 -114h-426l-5 12q1 6 5 13q4 0 12.5 -0.5t11.5 -0.5q26 0 26 26v280l-55 -30v50l55 30v270q0 25 -21 25h-29q-5 8 -5 14q0 4 5 11h175q5 -5 5 -12q0 -8 -5 -13h-31q-19 -3 -19 -25v-230l55 30v-50 l-55 -30v-320q0 -15 6.5 -20t20.5 -5h16z" />
<glyph unicode="&#x142;" horiz-adv-x="264" d="M179 750q-10 -27 -10 -50v-290l55 30v-50l-55 -30v-310q0 -25 20 -25h30q5 -5 5 -13q0 -7 -5 -12h-175q-5 9 -4 13q0 7 4 12h29q21 2 21 25v270l-55 -30v50l55 30v280l-50 50q25 0 67.5 25t67.5 25z" />
<glyph unicode="&#x160;" horiz-adv-x="537" d="M257 -10q-94 0 -162.5 45t-68.5 80q0 13 9 21.5t22 8.5q16 0 32 -20.5t29.5 -44.5t42 -44.5t66.5 -20.5q73 0 133.5 36t60.5 105q0 37 -20.5 66.5t-53.5 49.5t-72.5 38t-79 37t-72.5 41.5t-53.5 57t-20.5 78.5q0 88 63.5 137t168.5 49q29 0 76 -11.5t90 -36t43 -53.5 q0 -11 -8 -19t-19 -8q-16 0 -34 16t-35 35t-53.5 35t-84.5 16q-49 0 -87 -46.5t-38 -96.5q0 -47 38.5 -80t93.5 -55.5t110 -47.5t93.5 -70.5t38.5 -109.5q0 -92 -71.5 -140t-176.5 -48zM261 743l-123 157l18 18l118 -102l119 102l18 -18l-123 -157l-13 -3q-12 3 -14 3z" />
<glyph unicode="&#x161;" horiz-adv-x="409" d="M220 450q16 0 34 -1.5t43 -6.5t41 -16t16 -27q0 -13 -9.5 -25t-21.5 -12q-17 0 -57.5 31t-61.5 31q-36 0 -60 -19.5t-24 -54.5q0 -31 25.5 -52.5t62 -35t73.5 -29t62.5 -45t25.5 -72.5q0 -41 -16 -67.5t-46.5 -38.5t-59.5 -16t-71 -4q-143 0 -143 55q0 14 9 24.5t23 10.5 q19 0 62 -32.5t64 -32.5q45 0 78.5 21t33.5 64q0 29 -26 50.5t-63 36.5t-74 32t-63 46t-26 70q0 63 49 89t120 26zM189 503l-123 157l18 18l118 -102l119 102l18 -18l-123 -157l-13 -3q-12 3 -14 3z" />
<glyph unicode="&#x178;" horiz-adv-x="580" d="M38 700h175q5 -5 5 -12q0 -8 -5 -13h-13q-35 0 -37 -25l149 -272l126 272v5q0 12 -5.5 16t-21.5 4h-37q-5 5 -5 13q0 7 5 12h175l5 -12q-2 -6 -5 -13h-35q-18 -3 -29 -25l-152 -318v-282q0 -16 13 -20.5t37 -4.5q5 -5 5 -13q0 -7 -5 -12h-175q-5 7 -5 12q0 8 5 13 q16 0 25 1t17 7t8 17v282l-170 318q-13 25 -50 25q-5 6 -5 13t5 12zM379 876q21 0 36 -15t15 -36t-15 -35.5t-36 -14.5t-35.5 14.5t-14.5 35.5t14.5 36t35.5 15zM211 876q21 0 36 -15t15 -36t-15 -35.5t-36 -14.5t-35.5 14.5t-14.5 35.5t14.5 36t35.5 15z" />
<glyph unicode="&#x17d;" horiz-adv-x="502" d="M336 675q-75 0 -128 -11t-76.5 -26.5t-37.5 -31.5t-22.5 -27t-19.5 -11q-16 0 -25 18l56 114h392l5 -12q-4 -15 -80.5 -155.5t-167.5 -304.5t-98 -178q0 -15 6.5 -20t20.5 -5h16q77 0 130.5 11t77.5 26.5t38 31.5t23 27t20 11q16 0 25 -18l-56 -114h-426l-5 12l5 13 q33 2 50 33l323 592q0 25 -30 25h-16zM253 743l-123 157l18 18l118 -102l119 102l18 -18l-123 -157l-13 -3q-12 3 -14 3z" />
<glyph unicode="&#x17e;" horiz-adv-x="404" d="M79 440h287l-250 -415h104q21 0 63.5 32.5t61.5 32.5q12 0 22 -9t10 -21q0 -60 -142 -60h-212l248 415h-95q-33 0 -66.5 -30.5t-50.5 -31.5l-27 17zM185 503l-123 157l18 18l118 -102l119 102l18 -18l-123 -157l-13 -3q-12 3 -14 3z" />
<glyph unicode="&#x17f;" horiz-adv-x="216" d="M355 671q-17 0 -30.5 14.5t-37.5 14.5q-62 0 -99 -43t-37 -107v-500q0 -23 -5 -41t-18 -34.5t-23 -26.5t-32 -29t-33 -29q21 39 28.5 71.5t7.5 88.5v365h-54l54 35q1 55 32.5 124t86 122.5t110.5 53.5q85 0 85 -54q0 -10 -12 -17.5t-23 -7.5z" />
<glyph unicode="&#x192;" horiz-adv-x="300" d="M402 631q-17 0 -28 14.5t-35 14.5q-60 0 -88.5 -40t-38.5 -110l-9 -60h82l-22 -25h-64l-56 -375q-4 -28 -15.5 -51t-33.5 -44t-37.5 -32.5t-47.5 -32.5q5 22 29 70t30 90l56 375h-54l22 25h36l2 10q6 40 46.5 99t94.5 104.5t93 46.5q78 0 78 -46q0 -1 -0.5 -3.5 t-0.5 -4.5q-1 -10 -14.5 -17.5t-24.5 -7.5z" />
<glyph unicode="&#x2c6;" horiz-adv-x="380" d="M176 675q2 0 14 3l13 -3l123 -157l-18 -18l-119 102l-118 -102l-18 18z" />
<glyph unicode="&#x2c7;" horiz-adv-x="268" d="M120 503l-123 157l18 18l118 -102l119 102l18 -18l-123 -157l-13 -3q-12 3 -14 3z" />
<glyph unicode="&#x2d8;" horiz-adv-x="332" d="M156 500q-46 0 -85.5 55t-42.5 104l18 10q52 -106 110 -106q48 0 77 27.5t50 78.5l18 -9q-2 -56 -46.5 -108t-98.5 -52z" />
<glyph unicode="&#x2d9;" horiz-adv-x="212" d="M106 673q21 0 36 -15t15 -36t-15 -35.5t-36 -14.5t-35.5 14.5t-14.5 35.5t14.5 36t35.5 15z" />
<glyph unicode="&#x2da;" horiz-adv-x="249" d="M115 659q31 0 53 -22t22 -53t-22 -53t-53 -22t-53 22t-22 53t22 53t53 22zM115 635q-21 0 -35.5 -15t-14.5 -36t14.5 -35.5t35.5 -14.5t36 14.5t15 35.5t-15 36t-36 15z" />
<glyph unicode="&#x2db;" horiz-adv-x="254" d="M219 -93q-14 -36 -39.5 -64t-57.5 -28q-31 0 -52 22.5t-21 53.5q0 28 21.5 63.5t46.5 55.5h46q-19 -15 -38.5 -49t-19.5 -56q0 -17 9.5 -28.5t26.5 -11.5q29 0 78 42z" />
<glyph unicode="&#x2dc;" horiz-adv-x="382" d="M238 549q-28 0 -59 21t-44 21h-2q-32 0 -47 -43l-38 20l86 63q27 0 56 -21q34 -21 47 -21q20 0 31.5 5.5t15.5 11.5t11 22l39 -17z" />
<glyph unicode="&#x2dd;" horiz-adv-x="373" d="M321 673q21 0 35.5 -15t14.5 -36l-155 -124l-18 18zM175 673q21 0 35.5 -15t14.5 -36l-155 -124l-18 18z" />
<glyph unicode="&#x3c0;" horiz-adv-x="519" d="M45 16q0 3 12.5 23.5t30 54t35 76t30 100t12.5 114.5h-27q-91 0 -126 -34q1 1 13 17.5t15.5 20.5t16 17.5t21.5 18.5t24 12.5t32 10.5t37 3h2l235 1q22 0 34 7t24 29q29 -16 29 -54q-1 -20 -12 -34.5t-29 -14.5h-71v-246q1 -117 33 -123h3q5 0 35 15q-7 -20 -25.5 -30 t-32.5 -10q-92 0 -92 127v267q-58 1 -104 1v-19q0 -146 -35 -262t-88 -116h-2q-13 1 -21.5 9t-8.5 19z" />
<glyph unicode="&#x2000;" horiz-adv-x="500" />
<glyph unicode="&#x2001;" horiz-adv-x="1000" />
<glyph unicode="&#x2002;" horiz-adv-x="500" />
<glyph unicode="&#x2003;" horiz-adv-x="1000" />
<glyph unicode="&#x2004;" horiz-adv-x="333" />
<glyph unicode="&#x2005;" horiz-adv-x="250" />
<glyph unicode="&#x2006;" horiz-adv-x="166" />
<glyph unicode="&#x2007;" horiz-adv-x="631" />
<glyph unicode="&#x2008;" />
<glyph unicode="&#x2009;" horiz-adv-x="100" />
<glyph unicode="&#x200a;" horiz-adv-x="10" />
<glyph unicode="&#x2010;" horiz-adv-x="438" d="M69 191v57h300v-57h-300z" />
<glyph unicode="&#x2011;" horiz-adv-x="438" d="M69 191v57h300v-57h-300z" />
<glyph unicode="&#x2012;" horiz-adv-x="631" d="M69 191v57h493v-57h-493z" />
<glyph unicode="&#x2013;" horiz-adv-x="500" d="M69 191v57h362v-57h-362z" />
<glyph unicode="&#x2014;" horiz-adv-x="1000" d="M69 191v57h862v-57h-862z" />
<glyph unicode="&#x2015;" horiz-adv-x="2000" d="M69 191v57h1862v-57h-1862z" />
<glyph unicode="&#x2016;" horiz-adv-x="408" d="M339 -12h-66v762h66v-762zM135 -12h-66v762h66v-762z" />
<glyph unicode="&#x2018;" horiz-adv-x="234" d="M130 459q-37 0 -54 31.5t-17 72.5q0 59 32 103t89 84q-22 -29 -32 -42.5t-22.5 -41.5t-12.5 -51t10.5 -37t23 -18.5t23 -17t10.5 -32.5q0 -21 -14.5 -36t-35.5 -15z" />
<glyph unicode="&#x2019;" horiz-adv-x="191" d="M87 750q37 0 54 -31.5t17 -72.5q0 -59 -32 -103t-89 -84q22 29 32 42.5t22.5 41.5t12.5 51t-10.5 37t-23 18.5t-23 17t-10.5 32.5q0 21 14.5 36t35.5 15z" />
<glyph unicode="&#x201a;" horiz-adv-x="252" d="M94 99q37 0 54 -31.5t17 -72.5q0 -59 -32 -103t-89 -84q22 29 32 42.5t22.5 41.5t12.5 51t-10.5 37t-23 18.5t-23 17t-10.5 32.5q0 21 14.5 36t35.5 15z" />
<glyph unicode="&#x201b;" horiz-adv-x="220" d="M121 750q21 0 35.5 -15t14.5 -36q0 -20 -10.5 -32.5t-23 -17t-23 -18.5t-10.5 -37t12.5 -51t22.5 -41.5t32 -42.5q-57 40 -89 84t-32 103q0 41 17 72.5t54 31.5z" />
<glyph unicode="&#x201c;" horiz-adv-x="431" d="M327 459q-37 0 -54 31.5t-17 72.5q0 59 32 103t89 84q-22 -29 -32 -42.5t-22.5 -41.5t-12.5 -51t10.5 -37t23 -18.5t23 -17t10.5 -32.5q0 -21 -14.5 -36t-35.5 -15zM130 459q-37 0 -54 31.5t-17 72.5q0 59 32 103t89 84q-22 -29 -32 -42.5t-22.5 -41.5t-12.5 -51 t10.5 -37t23 -18.5t23 -17t10.5 -32.5q0 -21 -14.5 -36t-35.5 -15z" />
<glyph unicode="&#x201d;" horiz-adv-x="390" d="M286 750q37 0 54 -31.5t17 -72.5q0 -59 -32 -103t-89 -84q22 29 32 42.5t22.5 41.5t12.5 51t-10.5 37t-23 18.5t-23 17t-10.5 32.5q0 21 14.5 36t35.5 15zM87 750q37 0 54 -31.5t17 -72.5q0 -59 -32 -103t-89 -84q22 29 32 42.5t22.5 41.5t12.5 51t-10.5 37t-23 18.5 t-23 17t-10.5 32.5q0 21 14.5 36t35.5 15z" />
<glyph unicode="&#x201e;" horiz-adv-x="390" d="M286 99q37 0 54 -31.5t17 -72.5q0 -59 -32 -103t-89 -84q22 29 32 42.5t22.5 41.5t12.5 51t-10.5 37t-23 18.5t-23 17t-10.5 32.5q0 21 14.5 36t35.5 15zM87 99q37 0 54 -31.5t17 -72.5q0 -59 -32 -103t-89 -84q22 29 32 42.5t22.5 41.5t12.5 51t-10.5 37t-23 18.5 t-23 17t-10.5 32.5q0 21 14.5 36t35.5 15z" />
<glyph unicode="&#x201f;" horiz-adv-x="419" d="M121 750q21 0 35.5 -15t14.5 -36q0 -20 -10.5 -32.5t-23 -17t-23 -18.5t-10.5 -37t12.5 -51t22.5 -41.5t32 -42.5q-57 40 -89 84t-32 103q0 41 17 72.5t54 31.5zM320 750q21 0 35.5 -15t14.5 -36q0 -20 -10.5 -32.5t-23 -17t-23 -18.5t-10.5 -37t12.5 -51t22.5 -41.5 t32 -42.5q-57 40 -89 84t-32 103q0 41 17 72.5t54 31.5z" />
<glyph unicode="&#x2020;" horiz-adv-x="399" d="M213 -150h-34q0 9 0.5 60.5t0.5 89.5q0 244 -23 303q25 57 25 144q-102 0 -138 -35q-27 9 -44 48q15 39 44 50q37 -34 138 -36q0 116 -30 179q15 41 44 57q29 -12 48 -57q-31 -58 -33 -179q102 2 140 36q29 -11 44 -50q-17 -38 -44 -48q-36 35 -140 35q0 -86 27 -144 q-26 -76 -26 -310q0 -33 0.5 -81.5t0.5 -61.5z" />
<glyph unicode="&#x2021;" horiz-adv-x="438" d="M417 157q-6 -14 -19 -30t-25 -21q-41 36 -139 38q0 -129 32 -187q-18 -44 -48 -57q-32 16 -46 57q32 56 32 187q-100 -2 -138 -38q-13 4 -26 20t-18 31q6 14 18.5 29t25.5 19q34 -34 138 -36q0 114 -30 161q20 35 25 62.5t5 75.5q-102 0 -138 -36q-13 5 -25.5 20 t-18.5 30q6 15 19 30.5t25 18.5q37 -34 138 -36q0 103 -32 159q15 42 46 56q30 -12 48 -56q-21 -36 -26.5 -70t-5.5 -89q100 2 139 36q21 -6 44 -49q-18 -38 -44 -50q-37 36 -139 36q0 -91 30 -137q-30 -42 -30 -162q101 0 139 36q24 -9 44 -48z" />
<glyph unicode="&#x2022;" horiz-adv-x="380" d="M187 450q61 0 102 -41.5t41 -102.5q0 -57 -42.5 -98.5t-99.5 -41.5q-59 0 -100 42t-41 101t41 100t99 41z" />
<glyph unicode="&#x2023;" horiz-adv-x="382" d="M73 484l298 -200l-298 -200v400z" />
<glyph unicode="&#x2024;" d="M113 104q24 0 41 -17t17 -41q0 -25 -16.5 -41t-41.5 -16q-24 0 -41 16.5t-17 40.5t17 41t41 17z" />
<glyph unicode="&#x2025;" horiz-adv-x="462" d="M344 104q24 0 41 -17t17 -41q0 -25 -16.5 -41t-41.5 -16q-24 0 -41 16.5t-17 40.5t17 41t41 17zM113 104q24 0 41 -17t17 -41q0 -25 -16.5 -41t-41.5 -16q-24 0 -41 16.5t-17 40.5t17 41t41 17z" />
<glyph unicode="&#x2026;" horiz-adv-x="693" d="M575 104q24 0 41 -17t17 -41q0 -25 -16.5 -41t-41.5 -16q-24 0 -41 16.5t-17 40.5t17 41t41 17zM344 104q24 0 41 -17t17 -41q0 -25 -16.5 -41t-41.5 -16q-24 0 -41 16.5t-17 40.5t17 41t41 17zM113 104q24 0 41 -17t17 -41q0 -25 -16.5 -41t-41.5 -16q-24 0 -41 16.5 t-17 40.5t17 41t41 17z" />
<glyph unicode="&#x2030;" horiz-adv-x="1200" d="M1006 370q-30 0 -52 -29.5t-31 -64t-9 -64.5q0 -35 5.5 -67.5t18 -64t37.5 -51t60 -19.5q31 0 53 29t30.5 63.5t8.5 65.5q0 202 -121 202zM559 710q-169 -465 -239 -720h-68q154 389 240 720h67zM179 688q-30 0 -52 -29.5t-31 -64t-9 -64.5q0 -35 5.5 -67.5t18 -64 t37.5 -51t60 -19.5q31 0 53 29t30.5 63.5t8.5 65.5q0 202 -121 202zM1019 392q79 0 122.5 -60t43.5 -141t-43.5 -141t-122.5 -60q-78 0 -121.5 60t-43.5 141t43.5 141t121.5 60zM192 710q79 0 122.5 -60t43.5 -141t-43.5 -141t-122.5 -60q-78 0 -121.5 60t-43.5 141 t43.5 141t121.5 60zM618 370q-30 0 -52 -29.5t-31 -64t-9 -64.5q0 -35 5.5 -67.5t18 -64t37.5 -51t60 -19.5q31 0 53 29t30.5 63.5t8.5 65.5q0 202 -121 202zM631 392q79 0 122.5 -60t43.5 -141t-43.5 -141t-122.5 -60q-78 0 -121.5 60t-43.5 141t43.5 141t121.5 60z" />
<glyph unicode="&#x2039;" horiz-adv-x="267" d="M14 222q88 56 212 194q10 0 10 -10l-129 -182l118 -172l-10 -13q-113 117 -201 183z" />
<glyph unicode="&#x203a;" horiz-adv-x="265" d="M252 222q-53 -35 -109 -85.5t-92 -97.5l-10 13l118 172l-129 182q0 10 10 10q40 -50 103 -108.5t109 -85.5z" />
<glyph unicode="&#x2044;" horiz-adv-x="382" d="M453 710l-450 -720h-49l453 720h46z" />
<glyph unicode="&#x20ac;" horiz-adv-x="578" d="M566 115q0 -31 -62 -78t-150 -47q-110 0 -171.5 72t-78.5 188h-81l20 50h55q-2 19 -2 56h-73l20 50h55q10 130 79.5 217t194.5 87q47 0 118.5 -31t71.5 -70q0 -11 -8 -19t-19 -8q-18 0 -35 16t-31.5 35t-44 35t-69.5 16q-46 0 -80.5 -28.5t-52 -74t-26.5 -89t-10 -86.5 h216l-26 -50h-189v-28q0 -19 1 -28h158l-27 -50h-127q5 -49 16 -87t32 -73.5t57.5 -55t86.5 -19.5q35 0 59 20.5t33.5 44.5t24.5 44.5t34 20.5q13 0 22 -8.5t9 -21.5z" />
<glyph unicode="&#x2113;" horiz-adv-x="392" d="M161 490v-137q94 124 94 258q0 46 -11.5 76.5t-33.5 30.5q-28 0 -38.5 -51.5t-10.5 -176.5zM86 427q0 74 6 129.5t20 101t40.5 69t64.5 23.5q42 0 64.5 -39.5t22.5 -95.5q0 -151 -143 -308v-89q0 -98 21.5 -135.5t65.5 -37.5q60 0 108 78l18 -18q-59 -115 -159 -115 q-73 0 -101 46.5t-28 139.5v80l-60 -49l-11 26l71 61v133z" />
<glyph unicode="&#x2116;" horiz-adv-x="850" d="M678 585q-32 0 -48 -34t-16 -70q0 -132 85 -132q32 0 48 33t16 69q0 134 -85 134zM688 600q55 0 89.5 -40t34.5 -93t-34.5 -93t-89.5 -40q-56 0 -90.5 39.5t-34.5 93.5t34.5 93.5t90.5 39.5zM90 548q0 19 -32.5 19.5t-34.5 12.5q1 6 5 10h125l257 -472v430q0 19 -32 20 t-32 12q0 5 5 10h175q5 -5 5 -10q0 -13 -24 -13q-3 0 -9 0.5t-8 0.5q-30 0 -30 -18v-503q0 -33 13 -47h-64l-269 485v-443q0 -21 63 -21q5 -4 5 -11q0 -5 -5 -10h-175q-5 5 -5 10q0 8 5 11q62 0 62 21v506z" />
<glyph unicode="&#x2122;" horiz-adv-x="612" d="M283 700h63l82 -155l81 155h53l2 -6l-2 -7q-2 0 -6 0.5t-6 0.5q-13 0 -13 -11v-304q0 -11 15 -11h10l2 -6l-2 -6h-78l-2 6l2 6h10q15 0 15 13v265l-82 -151l-81 151v-265q0 -13 15 -13h10l2 -6l-2 -6h-88l-2 6l2 6h10q15 0 15 11v304q0 11 -13 11q-2 0 -6 -0.5t-6 -0.5 l-2 7zM54 687q-37 0 -58.5 -8.5t-26 -18t-10 -18t-12.5 -8.5q-9 0 -13 9l28 57h266l28 -57q-4 -9 -13 -9q-7 0 -12.5 8.5t-10.5 18t-27 18t-59 8.5h-5.5h-5t-4 -0.5t-3.5 -1.5t-2 -3.5t-1 -6.5v-300q0 -13 15 -13h10l2 -6l-2 -6h-88l-2 6l2 6h10q15 0 15 13v300q0 4 -1 7 t-3.5 4t-4 1h-6.5h-6z" />
<glyph unicode="&#x2126;" horiz-adv-x="721" d="M686 147l-24 -147h-232l-7 21q3 5 20.5 34.5t25 43t24 44.5t25 54.5t18.5 54.5t14.5 62.5t4.5 63.5q0 88 -19.5 150.5t-50.5 93.5t-62 44t-64 13q-87 0 -140.5 -74t-53.5 -231q0 -24 2 -47t8.5 -47t10.5 -42t15 -43t16 -37.5t19.5 -38.5t18 -33t20 -35t17.5 -30l-6 -21 h-230l-23 147l23 1q15 -50 29.5 -65t44.5 -15h105q-31 28 -53 51t-50.5 63t-44 91t-15.5 109q0 147 82.5 237.5t205.5 90.5q128 0 206.5 -85.5t78.5 -232.5q0 -96 -46 -173t-120 -151h110q32 0 45 13.5t29 66.5z" />
<glyph unicode="&#x212e;" horiz-adv-x="776" d="M387 689q-84 0 -155 -49.5t-71 -80.5v-195q0 -7 5 -7h444q3 0 3 7v199q0 12 -18 32.5t-47 41.5t-72.5 36.5t-88.5 15.5zM161 135q0 -13 18 -34t47.5 -42.5t73 -37t87.5 -15.5q68 0 128 32t103 88h51q-48 -64 -122.5 -101.5t-160.5 -37.5q-148 0 -252.5 106t-104.5 255 q0 151 104.5 256.5t252.5 105.5q149 0 254 -105.5t105 -256.5v-9h-579q-5 0 -5 -5v-199z" />
<glyph unicode="&#x2202;" horiz-adv-x="512" d="M273 400q-45 0 -77 -23t-47 -62t-21 -76.5t-6 -80.5v-3q0 -59 26.5 -97.5t69.5 -38.5q121 0 163 303q-11 26 -41.5 52t-66.5 26zM242 705q-36 0 -69.5 -17.5t-56 -35t-31.5 -17.5h-2q-28 0 -28 32t53 57.5t108 25.5q60 0 109.5 -34.5t78.5 -88t44 -112t15 -112.5 q0 -62 -11 -126.5t-36 -133t-76.5 -112t-121.5 -43.5q-80 0 -128.5 56.5t-48.5 151.5q0 97 58 171.5t154 74.5h1q36 0 73.5 -20.5t60.5 -57.5q8 61 8 102q0 96 -43.5 167.5t-110.5 71.5z" />
<glyph unicode="&#x2206;" horiz-adv-x="616" d="M481 47l-201 543l-196 -543h397zM579 0h-546v24l251 675l38 11l257 -686v-24z" />
<glyph unicode="&#x220f;" horiz-adv-x="661" d="M634 700v-25l-49 -1q-25 -6 -31.5 -20t-6.5 -49v-610q0 -40 6.5 -60t29.5 -20h49v-25h-246v25h46q21 2 28.5 20t7.5 59v609q-1 44 -9.5 58t-29.5 14h-198q-21 0 -30 -15t-9 -53v-613q0 -28 1.5 -42.5t8.5 -25.5t20 -11h45v-25h-239v25h43q27 1 34.5 18.5t7.5 60.5v611 q0 34 -7 49t-31 21h-50v25h609z" />
<glyph unicode="&#x2211;" horiz-adv-x="536" d="M458 525q-6 35 -12 59t-15 40t-16.5 24t-23.5 12.5t-27.5 5t-37.5 0.5h-194l179 -345l-219 -355h262q35 0 50.5 2t31.5 16t25.5 36.5t26.5 72.5l24 -7l-41 -196h-446v25l218 353l-213 407v25h440q0 -5 5 -67.5t7 -101.5z" />
<glyph unicode="&#x2212;" horiz-adv-x="576" d="M69 248h438v-57h-438v57z" />
<glyph unicode="&#x2215;" horiz-adv-x="291" d="M320 710q-169 -465 -239 -720h-68q154 389 240 720h67z" />
<glyph unicode="&#x2219;" horiz-adv-x="230" d="M112 306q24 0 41 -17t17 -41q0 -25 -16.5 -41t-41.5 -16q-24 0 -41 16.5t-17 40.5t17 41t41 17z" />
<glyph unicode="&#x221a;" horiz-adv-x="525" d="M509 899l-157 -1036l-20 -13l-210 561l-84 -47l-10 33l145 80l168 -458h1l131 891z" />
<glyph unicode="&#x221e;" horiz-adv-x="712" d="M524 397h-1q-14 0 -29 -6t-26 -13.5t-25 -22t-21 -23t-20 -25t-16 -20.5q48 -62 77.5 -87t62.5 -25q40 0 65 33.5t25 75.5q0 52 -26 82.5t-66 30.5zM190 175h2q13 0 27.5 5.5t24.5 12t24.5 20.5t21 21.5t21.5 25t19 22.5q-23 32 -32.5 43.5t-30 33t-40 30t-42.5 8.5 q-40 0 -65 -33t-25 -81q0 -45 27 -76.5t68 -31.5zM666 289v-1q0 -74 -42.5 -120.5t-100.5 -46.5q-41 0 -79.5 28.5t-87.5 92.5q-45 -59 -83.5 -90t-88.5 -31q-57 0 -98 47t-41 116q0 73 41 119.5t105 46.5q47 0 86 -31.5t83 -89.5q24 31 35.5 44.5t34.5 35.5t47 31.5t51 9.5 h2q60 0 98 -44.5t38 -116.5z" />
<glyph unicode="&#x222b;" horiz-adv-x="349" d="M151 17l-17 416q-2 64 -2 89q0 338 141 338q21 0 39 -12t18 -34q0 -21 -11.5 -32.5t-28.5 -11.5q-16 0 -27.5 24t-20.5 24q-42 0 -42 -133q0 -27 1 -43l16 -394q1 -18 1 -51v-47q0 -350 -141 -350q-24 0 -40.5 14t-16.5 36q0 18 14.5 31.5t32.5 13.5q13 0 24.5 -25.5 t20.5 -25.5q19 0 29.5 36t10.5 99q0 25 -1 38z" />
<glyph unicode="&#x2248;" horiz-adv-x="524" d="M359 129q-41 0 -101 38t-92 38q-51 0 -94 -75l-34 33q23 45 57.5 71.5t74.5 26.5q43 0 101 -38t89 -38q27 0 47 18.5t42 57.5l32 -35q-49 -97 -122 -97zM359 308q-43 0 -102 39q-58 38 -91 38q-29 0 -50.5 -20t-43.5 -56l-34 34q23 45 58 71.5t75 26.5t98 -38 q60 -38 91 -38q49 0 89 74l32 -33q-47 -98 -122 -98z" />
<glyph unicode="&#x2260;" horiz-adv-x="576" d="M69 156h152q63 104 73 127h-225v57h249q14 39 32 108h67q-25 -68 -44 -108h134v-57h-164q-10 -16 -25 -40.5t-27 -45t-23 -41.5h239v-57h-264q-19 -47 -36 -110h-68q26 65 50 110h-120v57z" />
<glyph unicode="&#x2264;" horiz-adv-x="576" d="M507 94l-439 199v57l439 200v-62l-363 -166l363 -167v-61zM69 57h438v-57h-438v57z" />
<glyph unicode="&#x2265;" horiz-adv-x="576" d="M69 94v61l361 167l-361 166v62l438 -200v-57zM69 57h438v-57h-438v57z" />
<glyph unicode="&#x25ca;" horiz-adv-x="535" d="M430 336l-161 351h-3l-163 -349l164 -352h2zM489 336l-194 -410h-58l-192 410l193 414h59z" />
<glyph unicode="&#x25fc;" horiz-adv-x="440" d="M0 440h440v-440h-440v440z" />
<glyph unicode="&#xe087;" horiz-adv-x="768" d="M393 70q0 -4 -5 -12.5t-17.5 -20t-29 -22t-43.5 -18t-57 -7.5q-91 0 -150.5 69t-59.5 161q0 87 53 154t137 75q-94 52 -94 135q0 43 21.5 76t56.5 52t73.5 28.5t78.5 9.5q103 0 160.5 -50t57.5 -150v-110h82l-18 -25h-64v-259q0 -29 1.5 -46.5t8 -42.5t22.5 -38t42 -13 q19 0 34 9.5t22.5 21t15.5 21t14 9.5q5 0 8.5 -4t3.5 -9q0 -1 -3 -8t-11 -18.5t-20.5 -22t-34 -18t-48.5 -7.5q-65 0 -97.5 41t-32.5 108v276h-54l18 25q27 1 58.5 48.5t31.5 86.5q0 38 -21 64.5t-56 38.5t-67.5 17t-68.5 5q-59 0 -104.5 -33t-45.5 -89v-3q0 -47 19.5 -84.5 t45.5 -40.5q127 -15 127 -57q0 -12 -9.5 -21t-21.5 -9q-18 0 -62 30.5t-65 30.5q-29 0 -51 -19t-33.5 -48t-17.5 -58t-6 -55q0 -229 143 -229q31 0 57 16.5t42 33.5t23 17q11 0 11 -12z" />
<glyph unicode="&#xe0db;" horiz-adv-x="876" d="M530 65q53 -50 118 -50q54 0 93 62t39 119q0 228 -148 228q-41 0 -71.5 -22t-30.5 -62v-275zM32 335q0 59 43.5 85.5t108.5 29.5q-102 47 -102 134q0 42 23 75.5t60 52.5t77 28.5t80 9.5q100 0 159 -47.5t59 -141.5q0 -34 -10 -147q59 36 121 36q92 0 148.5 -68 t56.5 -162q0 -92 -57.5 -161t-147.5 -69q-29 0 -65 15t-56 35v-240q0 -16 13 -20.5t37 -4.5q5 -5 5 -13q0 -7 -5 -12h-175q-5 7 -5 12q0 8 5 13q16 0 25 1t17 6.5t8 16.5v551l-55 52q49 2 84 44.5t35 128.5q0 38 -21 64.5t-56 38.5t-67.5 17t-68.5 5q-60 0 -110 -33t-50 -89 v-9q0 -45 19.5 -82t53.5 -37q14 0 31 -2.5t37 -8t33.5 -17t13.5 -26.5q0 -12 -9.5 -23t-21.5 -11q-17 0 -57 31t-61 31q-36 0 -60 -19.5t-24 -54.5q0 -31 25.5 -52.5t62 -35t73.5 -29t62.5 -45t25.5 -72.5q0 -41 -16 -67.5t-46.5 -38.5t-59.5 -16t-71 -4q-143 0 -143 55 q0 14 9 24.5t23 10.5q18 0 61 -32.5t65 -32.5q45 0 78.5 21t33.5 64q0 29 -26 50.5t-63 36.5t-74 32t-63 46t-26 70z" />
<glyph unicode="&#xe1a0;" horiz-adv-x="542" d="M630 -150q-24 0 -60.5 16.5t-88.5 58t-105.5 100t-113 153.5t-109.5 209v-337q0 -16 13 -20.5t37 -4.5q5 -5 5 -13q0 -7 -5 -12h-175q-5 7 -5 12q0 8 5 13q16 0 25 1t17 7t8 17v600q0 16 -13 20.5t-37 4.5q-5 5 -5 13q0 5 5 12h175q5 -5 5 -12q0 -8 -5 -13q-16 0 -25 -1 t-17 -7t-8 -17v-242l230 242q5 8 5 13q0 12 -24 12h-30q-4 4 -5 13q1 8 5 12h175q5 -5 5 -12q0 -8 -5 -13h-34l-256 -269q98 -228 238 -371.5t220 -143.5q23 0 35 11q-36 -52 -82 -52z" />
<glyph unicode="&#xe1a2;" horiz-adv-x="732" d="M340 684q-47 0 -87 -30t-64.5 -76t-38 -95.5t-13.5 -92.5q0 -64 14.5 -127t43.5 -120t81 -92.5t119 -35.5q48 0 88 30t64 76t37 95.5t13 93.5q0 69 -12.5 131t-40.5 118.5t-80.5 90.5t-123.5 34zM365 710q143 0 235 -106.5t92 -251.5q0 -123 -65.5 -219t-176.5 -127 q2 -32 22 -67t52.5 -65t81.5 -49.5t104 -20.5q65 0 133 23.5t119 74.5q-24 -43 -62.5 -74t-83 -47.5t-86 -23.5t-84.5 -7q-58 0 -119 36t-101.5 92.5t-41.5 111.5q-154 0 -250 103t-96 259q0 145 91 251.5t236 106.5z" />
<glyph unicode="&#xe1a3;" horiz-adv-x="530" d="M246 339q93 -201 221 -324.5t202 -123.5q23 0 35 11q-36 -52 -82 -52q-33 0 -94 36q-103 60 -198 183t-170 286l-7 10v-315q0 -16 13 -20.5t37 -4.5q5 -5 5 -13q0 -7 -5 -12h-175q-5 7 -5 12q0 8 5 13q16 0 25 1t17 7t8 17v600q0 15 -4.5 20t-22.5 5h-23q-5 6 -5 12 q0 5 5 13h279q75 0 129 -54t54 -128t-45 -128.5t-118 -57.5h-8q-27 0 -73 7zM153 650v-256q45 -20 121 -20q65 0 101.5 38.5t36.5 105.5q0 157 -144 157h-90q-14 0 -19.5 -5.5t-5.5 -19.5z" />
<glyph unicode="&#xe1a7;" horiz-adv-x="548" d="M26 700h175q5 -5 5 -12q0 -8 -5 -13h-30q-23 -2 -23 -14q0 -3 3 -11l133 -248l132 248q4 7 4 13q0 12 -31 12h-37q-5 5 -5 13q0 7 5 12h175q5 -7 5 -13q0 -2 -5 -12h-26q-26 -2 -38 -25l-155 -290l42 -77q148 -256 316 -367q38 -25 79 -25q23 0 35 11q-36 -52 -82 -52 q-33 0 -94 36q-174 101 -324 382l-10 20l-128 -238q-5 -10 -5 -14q0 -11 30 -11h39q6 -6 6 -13q0 -6 -6 -12h-175q-5 5 -5 12q0 8 5 13h25q26 2 39 25l151 282l-170 318q-13 24 -50 25q-4 8 -4 11q0 9 4 14z" />
<glyph unicode="&#xe1a8;" horiz-adv-x="464" d="M241 92q68 0 128 -31.5t98.5 -80t61 -103t22.5 -102.5q0 -17 -1 -25q-18 108 -106.5 191.5t-204.5 83.5q-50 0 -92.5 -16t-67.5 -41q-14 29 -70 32q24 13 50 58l323 592q0 25 -30 25h-16q-75 0 -128 -11t-76.5 -26.5t-37.5 -31.5t-22.5 -27t-19.5 -11q-16 0 -25 18 l56 114h392l5 -12q-2 -8 -29 -59.5t-70 -130.5t-83.5 -152.5t-86 -155t-60.5 -109.5q47 11 90 11z" />
<glyph unicode="&#xe1aa;" horiz-adv-x="495" d="M355 402q0 9 -31 10.5t-35 15.5l5 12h175q5 -5 5 -12q0 -8 -5 -13h-25l-224 -147q74 -157 199.5 -263.5t264.5 -106.5l-102 -48q-145 44 -244 140.5t-183 256.5v-197q0 -25 20 -25h30q5 -5 5 -13q0 -7 -5 -12h-175q-4 8 -4 11q0 9 4 14h29q21 2 21 25v600l-50 50 q24 0 67 25t68 25q-10 -27 -10 -50v-432l189 122q11 8 11 12z" />
<glyph unicode="&#xe1ad;" horiz-adv-x="504" d="M353 403q0 9 -29.5 10t-29.5 15q0 7 5 12h150q5 -5 5 -12q0 -3 -5 -13h-25l-150 -188q110 -138 175 -200q146 -140 262 -140q27 0 49 7l-102 -48q-38 1 -76 12.5t-75 36t-65.5 47t-64 60.5t-54 59.5t-51.5 62t-42 51.5l-104 -132q-1 -2 -1 -6q0 -10 29 -10t29 -15 q0 -2 -5 -12h-150q-5 5 -5 12q0 8 5 13h25l147 182l-147 208h-25q-5 8 -5 15q0 5 5 10h175q5 -5 5 -12q0 -8 -5 -13h-10q-43 0 -43 -15q0 -4 3 -10l95 -127l103 134q2 2 2 6z" />
<glyph unicode="&#xe1ae;" horiz-adv-x="715" d="M355 63q-55 64 -55 157q0 86 48 150q-20 23 -51 38.5t-60 15.5q-52 0 -80 -60t-28 -120q0 -42 6 -78t20.5 -72t44.5 -57t72 -21q19 0 43.5 15t39.5 32zM595 344q-6 28 -39.5 54t-61.5 26q-36 0 -61 -31.5t-35 -69.5t-10 -75v-10zM679 69q0 -12 -20.5 -30t-61.5 -33.5 t-87 -15.5q-73 0 -127 48q-70 -48 -130 -48q-93 0 -151.5 68.5t-58.5 161.5q0 95 60.5 162.5t156.5 67.5q74 0 123 -48q53 48 127 48q116 0 185 -92l-307 -152q2 -75 37.5 -132.5t103.5 -57.5q27 0 51 10.5t37 23t24.5 23t17.5 10.5q20 0 20 -14z" />
<glyph unicode="&#xe1b0;" horiz-adv-x="750" d="M301 85v150l-147 -57q-39 -16 -39 -77q0 -39 24 -62.5t62 -23.5q28 0 64 22t36 48zM407 15q68 0 117.5 10t74.5 24.5t42.5 32t24 32t16 24.5t21.5 10q21 0 27 -22q0 -41 -43.5 -70t-109 -42t-116.5 -18.5t-89 -5.5h-11q-23 0 -41.5 15.5t-18.5 38.5v2q-39 -56 -116 -56 q-61 0 -105.5 24t-44.5 79q0 65 67 91l199 76v40q0 52 -20.5 88t-67.5 36q-26 0 -46.5 -14t-30.5 -30t-22 -30t-23 -14q-12 0 -20.5 9t-8.5 20q0 35 48.5 60t86.5 25q179 0 179 -130v-249q0 -52 20 -56h11z" />
<glyph unicode="&#xe1be;" horiz-adv-x="650" d="M238 424q-39 0 -65.5 -34t-35.5 -73.5t-9 -78.5l211 106q-7 29 -40 54.5t-61 25.5zM326 15q61 0 108 10t72 24.5t43.5 32t26.5 32t17.5 24.5t20.5 10q10 0 17.5 -6.5t9.5 -15.5q0 -37 -33 -65t-83.5 -42.5t-100.5 -21.5t-97 -7h-20q-109 2 -186 65.5t-77 161.5v3 q0 93 58.5 161.5t151.5 68.5q116 0 185 -92l-311 -152q0 -82 59.5 -135t128.5 -56h10z" />
<glyph unicode="&#xe1cd;" horiz-adv-x="800" d="M454 15q80 0 134.5 13.5t78.5 33t37 39.5t22.5 33.5t23.5 13.5q10 0 17.5 -6.5t9.5 -15.5q0 -40 -42 -69t-105 -42.5t-114.5 -19t-91.5 -5.5h-11q-62 0 -62 60v250q0 100 -56 100q-48 0 -133 -85v-265q0 -25 20 -25h30q5 -5 5 -13q0 -7 -5 -12h-175q-4 8 -4 11q0 9 4 14 h29q21 2 21 25v300l-50 50q24 0 67 25t68 25q-10 -27 -10 -50v-75q19 29 29.5 42.5t32 37t43.5 34.5t46 11q51 0 82 -36.5t31 -88.5v-275q0 13 -1 13q0 -43 18 -48h11z" />
<glyph unicode="&#xe1da;" horiz-adv-x="700" d="M394 375q-28 1 -56 13t-43 12q-48 0 -133 -85v-265q0 -25 20 -25h30q5 -5 5 -13q0 -7 -5 -12h-175q-4 8 -4 11q0 9 4 14h29q21 2 21 25v300l-50 50q24 0 67 25t68 25q-10 -27 -10 -50v-75q19 28 29.5 42.5t31.5 37.5t43.5 34t46.5 11q16 0 55 -24.5t59 -25.5h8 q42 0 77.5 20.5t54.5 44.5t38.5 44.5t33.5 20.5q21 0 27 -22q-1 -34 -32 -61t-76 -42t-86.5 -22.5t-70.5 -7.5h-7z" />
<glyph unicode="&#xe1e0;" horiz-adv-x="640" d="M323 63q-1 -3 -3 -8t-11 -17.5t-21 -22t-33.5 -17.5t-48.5 -8q-65 0 -97.5 41t-32.5 108v276h-54l18 25q21 0 39 24t28.5 53t24.5 55t29 28q-10 -16 -10 -50v-110q89 0 151.5 12t92.5 31.5t45.5 37.5t24 35.5t13.5 21.5l17 5h1v1h1q10 0 20 -6.5t12 -15.5 q0 -38 -38.5 -68t-98 -46t-121.5 -24.5t-120 -8.5v-259q0 -29 1.5 -47t8 -43t22.5 -38t42 -13q18 0 33 9.5t23 21t15.5 21t12.5 9.5q14 0 14 -13z" />
<glyph unicode="&#xfb05;" horiz-adv-x="595" d="M578 68q0 -2 -3 -10t-11.5 -19.5t-21 -22.5t-34.5 -18.5t-48 -7.5q-65 0 -97.5 41t-32.5 108v276h-54l18 25q22 0 43.5 33.5t46 78t48.5 60.5q0 30 -50 59t-97 29q-62 0 -99 -43t-37 -107v-500q0 -28 -8 -51t-27.5 -44t-33 -32.5t-42.5 -32.5q22 33 29 67t7 93v365h-54 l54 35q1 55 32.5 124t86 122.5t110.5 53.5q79 0 125 -36.5t52 -112.5h-3q-20 0 -46 -23t-26 -46v-92h82l-18 -25h-64v-259q0 -29 1.5 -47t8 -43t22.5 -38t42 -13q24 0 41.5 16.5t28.5 32.5t19 16q10 1 10 -12z" />
<glyph unicode="&#xfb06;" horiz-adv-x="740" d="M715 65q0 -2 -3 -9t-11.5 -18.5t-20.5 -22t-34 -18t-48 -7.5q-65 0 -97.5 41t-32.5 108v276h-54l18 25h1q30 0 59.5 47t29.5 88q0 38 -21 64.5t-56 38.5t-67.5 17t-68.5 5q-59 0 -104.5 -33t-45.5 -89v-9q0 -45 19.5 -82t53.5 -37q14 0 31 -2.5t37 -8t33.5 -17 t13.5 -26.5q0 -12 -9.5 -23t-21.5 -11q-17 0 -57 31t-61 31q-36 0 -60 -19.5t-24 -54.5q0 -31 25.5 -52.5t62 -35t73.5 -29t62.5 -45t25.5 -72.5q0 -41 -16 -67.5t-46.5 -38.5t-59.5 -16t-71 -4q-143 0 -143 55q0 14 9 24.5t23 10.5q19 0 62 -32.5t64 -32.5q45 0 78.5 21 t33.5 64q0 29 -26 50.5t-63 36.5t-74 32t-63 46t-26 70q0 59 43.5 85.5t108.5 29.5q-102 47 -102 134q0 43 21.5 76t56.5 52t73.5 28.5t78.5 9.5q103 0 160.5 -50t57.5 -150v-110h82l-18 -25h-64v-259q0 -29 1.5 -46.5t8 -42.5t22.5 -38t42 -13q24 0 41.5 15.5t27.5 31 t17 15.5q12 0 12 -13z" />
<glyph horiz-adv-x="576" d="M417 448q-28 -78 -59.5 -137.5t-53 -90.5t-48 -90t-49.5 -141h-68q30 76 63 135.5t54.5 91t46.5 90.5t47 142h67z" />
</font>
</defs>
</svg>
